Торрент файл
скачать торрент магнет ссылка Добавлен: 23 авг 2014, 23:50
Размер: 8.74 ГБ
Сидеров: 124
Личеров: 18
Автор

СообщениеДобавлено: 23 авг 2014, 23:50 

Не в сети
Супермодератор
Аватара пользователя
Дата регистрации:
06 июн 2014, 07:51
Спасибо: 577 / 0
Сообщения: 2002
Страна: Россия / Профит
Жанр: детектив, драма, криминал
Год выпуска: 2013
Продолжительность: 00:51:00 / серия
Перевод: Не требуется
Cубтитры: нет
Оригинальная аудиодорожка: русский
Режиссер: Владимир Шевельков
В ролях: Нина Усатова, Мария Шукшина, Павел Трубинер, Максим Дрозд, Сергей Никоненко, Евгений Сидихин, Леонид Громов, Денис Шведов, Николай Добрынин, Никита Салопин...
Описание: 2010 год. Кубанская станица Лощинская - оазис процветания среди кризисной разрухи: плотно засеяны поля, знатно ухожены фермы, население трудоустроено и сыто. Что это — колхозный капитализм или когда-то обещанный коммунизм? Ни то и ни другое. Это — блистательный семейный бизнес лихой казачки Надежды Волковой, крестной мамы здешних мест. И, как всякий успешный бизнес, поднятый с нуля в 90-е, он замешан на крови… В один прекрасный день в станицу Лощинская приезжает Марина Горобец, в недавнем прошлом замужняя женщина, директор молочного хозяйства в соседнем районе, а нынче — безработная и разведенная красавица в расцвете лет. Приезжает она, чтобы навестить дочь Светлану, которая учится в местном профучилище; тут-то и выясняется, что девочки в станице нет. Директор училища, местные милиционеры, одноклассницы Светы на прямые вопросы не отвечают, ведут себя агрессивно, словом, явно что-то скрывают. Не добившись помощи от официальных структур, Марина решает искать дочь самостоятельно. Она еще не знает, что на самом деле станицей руководит структура неофициальная — клан бизнесменов Волковых.

Качество: DVDRip / 2 x DVD9 R5 - лицензионные диски от "ЯРОС ФИЛЬМ"
Формат: AVI
Видео: 720x400 (16:9), 25.000 fps, XviD ~ 1800 kbps avg, 0.250 bit/pixel
Аудио: 48 kHz, Dolby AC3, 2 ch, 192 kbps, русский

Общее
Полное имя : Stanitsa.2013.O.DVDRip_[New-Team]_by_avproh\01.avi
Формат : AVI
Формат/Информация : Audio Video Interleave
Размер файла : 751 Мбайт
Продолжительность : 52 м.
Общий поток : 2002 Кбит/сек
Программа кодирования : VirtualDubModRus 1.5.10.2 (build 2542/release)
Библиотека кодирования : VirtualDubMod build 2542/release
Видео
Идентификатор : 0
Формат : MPEG-4 Visual
Профиль формата : Advanced Simple@L5
Параметр BVOP формата : 1
Параметр QPel формата : Нет
Параметр GMC формата : Без точки перехода
Параметр матрицы формата : Выборочная
Идентификатор кодека : XVID
Идентификатор кодека/Подсказка : XviD
Продолжительность : 52 м.
Битрейт : 1801 Кбит/сек
Ширина : 720 пикселей
Высота : 400 пикселей
Соотношение сторон : 16:9
Частота кадров : 25,000 кадров/сек
Цветовое пространство : YUV
Субдискретизация насыщенности : 4:2:0
Битовая глубина : 8 бит
Тип развёртки : Прогрессивная
Метод сжатия : С потерями
Бит/(Пиксели*Кадры) : 0.250
Размер потока : 675 Мбайт (90%)
Библиотека кодирования : XviD 1.2.1 (UTC 2008-12-04)
Аудио
Идентификатор : 1
Формат : AC-3
Формат/Информация : Audio Coding 3
Расширение режима : CM (complete main)
Параметр Endianness формата : Big
Идентификатор кодека : 2000
Продолжительность : 52 м.
Вид битрейта : Постоянный
Битрейт : 192 Кбит/сек
Каналы : 2 канала
Расположение каналов : Front: L R
Частота : 48,0 КГц
Битовая глубина : 16 бит
Метод сжатия : С потерями
Размер потока : 72,0 Мбайт (10%)
Выравнивание : Разделение по промежуткам
Продолжительность промежутка : 40 мс. (1,00 видеокадр)
Время предзагрузки промежутка : 500 мс.





реклама партнёра


Вернуться к началу
 Профиль Отправить личное сообщение  
 
   Похожие торренты   Автор   Торрент   Размер 
В этой теме нет новых непрочитанных сообщений. Рождённая звездой [01-12 из 12] (Владимир Шевельков, Марат Ким) [Мелодрама, 2015] HDTVRip 720p

Dracon

272 | 102

18.61 ГБ

В этой теме нет новых непрочитанных сообщений. Рожденная звездой [Серия 01-12 из 12] (Владимир Шевельков, Марат Ким) [Мелодрама, 2015] SATRip

Dracon

97 | 33

6.98 ГБ

В этой теме нет новых непрочитанных сообщений. Тест на беременность [Серия 1-16 из 16] (Михаил Вайнберг, Владимир Шевельков) [Мелодрама, 2015] SATRip

Dracon

337 | 89

11.38 ГБ

В этой теме нет новых непрочитанных сообщений. Тест на беременность / Профессия – акушер [01-16 из 16] (Михаил Вайнберг, Владимир Шевельков) [2014, Мелодрама, HDTVRip]

Nickolas3435

2002 | 547

11.43 ГБ

В этой теме нет новых непрочитанных сообщений. Тест на беременность / Профессия – акушер [01-10 из 16] (Михаил Вайнберг, Владимир Шевельков) [2014, Мелодрама, HDTVRip]

Nickolas3435

163 | 106

7.19 ГБ

В этой теме нет новых непрочитанных сообщений. Тест на беременность / Профессия – акушер [01-04 из 16] (Михаил Вайнберг, Владимир Шевельков) [2014, Мелодрама, HDTVRip]

Nickolas3435

201 | 51

2.88 ГБ

В этой теме нет новых непрочитанных сообщений. Тест на беременность / Профессия – акушер [01-16 из 16] (Михаил Вайнберг, Владимир Шевельков) [2014, Мелодрама, HDTVRip 720p]

Nickolas3435

365 | 177

24.89 ГБ


Начать новую тему Ответить на тему  [ 1 сообщение ] 




Для Мосгорсуда, Роскомнадзора и рекламодателей:: mosgorsud-torrent[собачка]yandex.ru