Торрент файл
скачать торрент магнет ссылка Добавлен: 23 авг 2014, 10:58
Размер: 17.36 ГБ
Сидеров: 1
Личеров: 3
Автор

СообщениеДобавлено: 23 авг 2014, 11:01 

Не в сети
Аватара пользователя
Дата регистрации:
26 ноя 2013, 12:32
Возраст: 56
Спасибо: 52 / 7
Сообщения: 66
Откуда: СССР
Год выпуска: 2012
Выпущено: Россия ,Украина ,«Пирамида», Одесская киностудия
Жанр: Детектив, криминал
Перевод: Не требуется
Режиссер: Сергей Крутин
В ролях: Дмитрий Марьянов, Александр Андриенко, Михаил Жигалов, Любовь Толкалина, Ада Роговцева, Нонна Гришаева, Евгений Ефремов, Елена Турбал, Сергей Фролов, Анастасия Саламатина, Владимир Миняйло, Евгений Косырев, Вячеслав Шихалеев, Дмитрий Арбенин, Владимир Чуприков, Денис Сердюков, Александр Нехороших, Михаил Досенко, Наталья Тищенко, Нина Курпякова, Тимофей Смирнов, Ирина Костырко, Сергей Ярый, Светлана Бельская, Андрей Бут, Елена Головина, Александра Цымбалюк, Валентина Прокофьева, Виктория Любицкая, Александр Зуев, Злата Швец-Скальская, Любава Грешнова, Ольга Радчук, Ярослав Белый, Виталий Герасимов, Юлия Морозова, Александр Мякушко
О фильме: Савельев решает выйти в отставку. Начальник искусственно затягивает процесс подписания рапорта, ведь Савельев не только его друг и классный сыщик, но и настоящий профессионал. Савельев, уроженец провинции, вдруг осознаёт, что проживание в мегаполисе уже ничего не даёт ему в отношении интереса к жизни. Конечно, повлияли на его решение и взаимоотношения с женой. Савельев год, как разведён. Савельев настаивает на своей отставке и уезжает на родину, в районный город N. Здесь от покойных родителей осталась квартира. Но главное, что у Савельева есть постоянная возможность ездить на кордон, жить и дышать в лесной глуши. Но к счастью или несчастью, профессия и высокая репутация не оставляют Савельева в покое. Его иногда привлекает к расследованиям местный прокурор, его однокашник – Черанёв. Но самое главное событие для Савельева – постигшая его любовь.
Сэмпл
Качество: HDTVRip
Видео: 720x400 (1.80:1), 25 fps, XviD MPEG-4 ~1364 kbps avg, 0.19 bit/pixel
Аудио: 48 kHz, AC3 Dolby Digital, 2/0 (L,R) ch, ~192 kbps
Продолжительность: 12 x ~00:45:00
Общее
Полное имя : D:\Мои фильмы\Kordon_sledovatelja_Savel'eva_S1_01-32iz32_2012_XviD_HDTVRip\Kordon_sledovatelja_Savel'eva_S1_01_iz_32_2012_HDTVRip.avi
Формат : AVI
Формат/Информация : Audio Video Interleave
Размер файла : 555 Мбайт
Продолжительность : 49 м.
Общий поток : 1566 Кбит/сек
Программа кодирования : VirtualDubMod 1.5.10.3 | http://www.virtualdub-fr.org || (build 2550/release)
Библиотека кодирования : VirtualDub build 35491/release

Видео
Идентификатор : 0
Формат : MPEG-4 Visual
Профиль формата : Advanced Simple@L5
Параметр BVOP формата : 2
Параметр QPel формата : Нет
Параметр GMC формата : Без точки перехода
Параметр матрицы формата : Default (H.263)
Режим смешивания : Сжатый битовый поток
Идентификатор кодека : XVID
Идентификатор кодека/Подсказка : XviD
Продолжительность : 49 м.
Битрейт : 1364 Кбит/сек
Ширина : 720 пикселей
Высота : 400 пикселей
Соотношение сторон : 16:9
Частота кадров : 25,000 кадров/сек
Цветовое пространство : YUV
Субдискретизация насыщенности : 4:2:0
Битовая глубина : 8 бит
Тип развёртки : Прогрессивная
Метод сжатия : С потерями
Бит/(Пиксели*Кадры) : 0.189
Размер потока : 484 Мбайт (87%)
Библиотека кодирования : XviD 65

Аудио
Идентификатор : 1
Формат : AC-3
Формат/Информация : Audio Coding 3
Расширение режима : CM (complete main)
Параметр Endianness формата : Big
Идентификатор кодека : 2000
Продолжительность : 49 м.
Вид битрейта : Постоянный
Битрейт : 192 Кбит/сек
Каналы : 2 канала
Расположение каналов : Front: L R
Частота : 48,0 КГц
Битовая глубина : 16 бит
Метод сжатия : С потерями
Размер потока : 68,1 Мбайт (12%)
Выравнивание : Соединение по промежуткам
Продолжительность промежутка : 40 мс. (1,00 видеокадр)
Время предзагрузки промежутка : 512 мс.





реклама партнёра


Вернуться к началу
 Профиль Отправить личное сообщение  
 
   Похожие торренты   Автор   Торрент   Размер 
В этой теме нет новых непрочитанных сообщений. Доклад для следователя / Report to the Commissioner [драма, криминал, 1975] BDRip 1080p, Dvo+Sub

salma3

12 | 10

11.02 ГБ

В этой теме нет новых непрочитанных сообщений. Грехопадение / Last Hours in Suburbia [триллер, криминал, детектив, 2012] HDTVRip, Dvo

salma3

129 | 9

1.46 ГБ

В этой теме нет новых непрочитанных сообщений. Ищейка / The closer / 7 сезон 1-21 серии из 21 [драма, криминал, детектив, 2012] HDTVRip, Avo

salma3

49 | 30

11.06 ГБ

В этой теме нет новых непрочитанных сообщений. Закон и порядок: Специальный корпус / Law & Order: Special Victims Unit [S13] [Драма, криминал, детектив, 2011-2012] HDTVRip, Avo [DexterTV]

salma3

4 | 5

11.17 ГБ

В этой теме нет новых непрочитанных сообщений. Город мечты / Magic City [S01-02] (Эдвард Бьянчи, Саймон Селлан Джоунс, Дэвид Петрарка) [2012-2013, драма, криминал, детектив, HDTVRip | Арк-ТВ]

Dracon

41 | 18

8.62 ГБ

В этой теме нет новых непрочитанных сообщений. Последний кордон / The Last Border - viimeisellа rajalla [фантастика, боевик, драма, 1993] DVDRip, Dvo

salma3

13 | 2

742.97 МБ

В этой теме нет новых непрочитанных сообщений. Леди-детектив мисс Фрайни Фишер / Miss Fisher's Murder Mysteries [S01-02] [драма, криминал, детектив, 2012-2013] DVDRip, HDRip, Mvo

salma3

151 | 102

15.92 ГБ


Начать новую тему Ответить на тему  [ 1 сообщение ] 




Для Мосгорсуда, Роскомнадзора и рекламодателей:: mosgorsud-torrent[собачка]yandex.ru