Торрент файл
скачать торрент магнет ссылка Добавлен: 28 авг 2014, 13:37
Размер: 22.38 ГБ
Сидеров: 66
Личеров: 43
Автор

СообщениеДобавлено: 17 авг 2014, 10:19 

Не в сети
Аватара пользователя
Дата регистрации:
09 авг 2014, 12:07
Спасибо: 60 / 1
Сообщения: 209
Откуда: КРАСНОГОРСК
Последний корабль / The Last Ship



Год выпуска: 2014
Выпущено: США, Platinum Dunes
Жанр:: Фантастика, боевик
Продолжительность: 00:45:00
Сезон:: 1
Серия:: 1-10
Количество серий в сезоне:: 10
Озвучка:Профессиональная многоголосая закадровая(LostFilm_TV)
Субтитры: НЕТ

Официальный сайт сериала



Режиссер: Майкл Бэй, Тони Марк, Тодд Арноу

В ролях: Рона Митра, Эрик Дэйн, Адам Болдуин, Михаэлла МакМанус, Марисса Нейтлинг, Трэвис Ван Винкл, Чарльз Парнелл, Кристина Элмор, Джоко Симс, Джон Пайпер-Фергюсон, Кевин Майкл Мартин


Такой шикарный корабль!

Вот и вышел на экраны долгожданный «Последний корабль». Разумеется, судить о сериале по пилоту было бы несколько странно. Однако некоторый смысл в этом есть. Не секрет, что именно в пилоте создатели современных сериалов стараются показать товар лицом, ведь от первого впечатления зрителей зависит и рейтинг последующих эпизодов.

Надо признать, что сюжет, предложенный авторами убийственно банален по нынешним временам. Пандемия косит человечество! Ну-ка, сколько раз вы уже видели это в последние годы? Удастся ли повернуть сюжет в сколь-нибудь нетривиальную сторону пока сказать сложно. Хотя финал пилота вроде обещает какую-то интригу…

Научная составляющая как обычно бредовая. Эпидемия начинается в Египте и разнесли ее полярные крачки. Хотя достаточно заглянуть в Вики, чтобы узнать — именно там они никогда не появляются! Что же такое делает в Антарктиде доктор Скотт не знают наверно и сами сценаристы…

Что до героев сериала, то пока на первом плане вне конкуренции эсминец США «Дьюи», в роли эсминца «Натан Джеймс». Да, представьте себе, корабль на экране самый настоящий, не нарисованный на и разница с анимацией бросается в глаза. Уж не знаю, чем киношники соблазнили Пентагон, но дело того стоило. Все так натурально, так красиво стреляют настоящие пушки…

Вот с героями-человеками пока что не очень здорово. Нет, они сплошь герои, непоколебимые и стойкие, прям с плаката, хоть гвозди делай из этих людей… но вот смотреть на них как-то не очень интересно. Будем надеяться, что дальше нам предложат некоторую индивидуализацию участников. А пока буду смотреть. По крайней мере, Рона Митра вполне себе на месте, секси, как всегда, хотя в роли великого эпидемиолога смотрится странно.

В надежде на лучшее продолжение:


Качество : WEB-DLRip-AVC 1080p
Формат: MPEG-4
Видео кодек: H264
Видео: 7223ит/сек,1920х1080(16.9),в 25.000кадр/сек,AVC(Baseline@L4.0)(1Ref Frames)
Аудио кодек: AAC
Аудио Russian:288Кбит/сек,48.0КГц,2канала,AAC,(Version4)(LC)

Звуковая дорожка сделана путем наложения чистого голоса озвучивателей на центральный канал оригинальной дорожки. Качество идентично звуковой дорожке.



01 Пилот- Шестая стадия (Pilot-Phase Six)
02 Добро пожаловать в Гуантанамо! (Welcome to Gitmo)
03 Счисление координат (Dead Reckoning)
04 Последний рывок (We'll Get There)
05 Эль Торо (El Toro)
06 Карантин (Lockdown)
07 S.O.S.
08 Заходят два моряка в бар... (Two Sailors Walk Into a Bar...)
09 Испытания (Trials)
10 Нет места лучше дома (No Place Like Home)



General
Полное имя : D:\Ф А Н Т А С Т И К А +П Р И К Л Ю Ч Е Н И Я + Ф Э Н Т А З И\Последний корабль\The_Last_Ship_2014_S01_RUS[LostFilm_TV]_x264_Nikolai.Baranov_WEB-DLRip-AVC_(1080p)\The_Last_Ship_S01Е01_RUS[LostFilm_TV]_x264_Nikolai.Baranov_WEB-DLRip-AVC_1080.mp4
Формат : MPEG-4
Профиль формата : Base Media
Идентификатор кодека : isom
Размер файла : 2.40 GiB
Продолжительность : 45mn 42s
Режим общего битрейта : Variable
Общий поток : 7 525 Kbps
Название фильма : Crossbones 1x01 The Devil's Dominion @ AlexFilm
Дата кодирования : UTC 2014-07-01 20:58:41
Дата пометки : UTC 2014-07-01 20:58:41
Программа кодирования : Lavf51.12.1

Video
Идентификатор : 1
Формат : AVC
Формат/Информация : Advanced Video Codec
Профиль формата : Baseline@L4.0
Параметр CABAC формата : No
Параметр ReFrames формата : 1 frame
Параметр GOP формата : M=1, N=12
Идентификатор кодека : avc1
Идентификатор кодека/Информация : Advanced Video Coding
Продолжительность : 45mn 42s
Вид битрейта : Variable
Битрейт : 7 223 Kbps
Максимальный битрейт : 10.5 Mbps
Ширина : 1 920 pixels
Высота : 1 080 pixels
Соотношение сторон : 16:9
Режим частоты кадров : Constant
Частота кадров : 25.000 fps
Частота кадров в оригинале : 24.000 fps
Цветовое пространство : YUV
Субдискретизация насыщенности : 4:2:0
Битовая глубина : 8 bits
Тип развёртки : Progressive
Бит/(Пиксели*Кадры) : 0.139
Размер потока : 2.31 GiB (96%)
Дата кодирования : UTC 2014-07-01 20:58:41
Дата пометки : UTC 2014-07-01 20:58:41

Audio
Идентификатор : 2
Формат : AAC
Формат/Информация : Advanced Audio Codec
Профиль формата : LC
Идентификатор кодека : 40
Продолжительность : 45mn 42s
Вид битрейта : Variable
Битрейт : 297 Kbps
Каналы : 2 channels
Channel(s)_Original : 6 channels
Расположение каналов : Front: L C R, Side: L R, LFE
Частота : 48.0 KHz
Метод сжатия : Lossy
Размер потока : 97.2 MiB (4%)
Дата кодирования : UTC 2014-07-01 20:58:41
Дата пометки : UTC 2014-07-01 20:58:41








1. Открыть торрент
2. Снять галки с тех файлов торрента, которые мы не хотим закачивать. Оставляем только на нужных нам файлах (файле).
3. Нажать О.К.

В клиенте utorrent

Инструкция

1) Открыть торрент


2) Снять галки с тех файлов торрента, которые мы не хотим закачивать:

* либо вручную, снимая с каждого файла галку( скрин №1)
* либо, нажав кнопку "Снять метки (Select None)", сняв сразу со всех файлов(скрин №2)
№1

№2

Оставляем только на нужных нам файлах (файле).

3)Нажать О.К





Внимание!!! 28.08. 2014. РАЗДАЧА ОБНОВЛЕНА.ФИНАЛ СЕЗОНА.ОБНОВИТЕ ТОРЕНТ ФАЙЛ.ПРИЯТНОГО ПРОСМОТРА .

Релиз от: Nikolai.Baranov







_________________

Легко быть оптимистом, когда судьба не валит с ног тяжелыми ударами, а лишь иногда легонько шлепает по заднице.



реклама партнёра


Вернуться к началу
 Профиль Отправить личное сообщение  
 
   Похожие торренты   Автор   Торрент   Размер 
В этой теме нет новых непрочитанных сообщений. Последний корабль / The Last Ship (Сезон1-2, Серия 1-14 из 23) ( Майкл Бэй, Тони Марк, Тодд Арноу) [2014-2015, Фантастика, боевик, WEBDLRip-AVC 1080р] [MVO] [LostFilm]

Враг Нароода

В этой теме нет новых непрочитанных сообщений. Последний корабль / The Last Ship (Сезон1-2, Серии 1-18 из 23) ( Майкл Бэй, Тони Марк, Тодд Арноу) [2014-2015, Фантастика, боевик, WEBDLRip-AVC 1080р] [DD5.1] [MVO] [LostFilm]

Враг Нароода

4 | 3

40.29 ГБ

В этой теме нет новых непрочитанных сообщений. Последний корабль / The Last Ship [S01-02] [фантастика, боевик, триллер, драма, 2014-2015] WEB-DLRip, Mvo [LostFilm]

salma3

231 | 258

13.52 ГБ

В этой теме нет новых непрочитанных сообщений. Последний корабль / The Last Ship / 3 сезон 1-13 серия из 13 [фантастика, боевик, постапокалипсис, 2016] WEB-DLRip, Mvo [Кравец]

salma3

113 | 141

7.42 ГБ

В этой теме нет новых непрочитанных сообщений. Последний корабль / The Last Ship [S03] (фантастика, боевик, триллер, драма, военный, 2016) WEB-DL 720p | LostFilm

marya111

0 | 0

17.69 ГБ

В этой теме нет новых непрочитанных сообщений. Последний корабль / The Last Ship / 3 сезон 1-13 серия из 13 [Драма, приключения, фантастика, 2016] WEB-DL 720p, Mvo [Кравец]

salma3

23 | 9

11.54 ГБ

В этой теме нет новых непрочитанных сообщений. Последний корабль / The Last Ship [S01] [фантастика, боевик, триллер, драма, 2014] WEB-DLRip, Mvo [BaibaKo]

Dracon

114 | 40

5.63 ГБ


Начать новую тему Ответить на тему  [ 1 сообщение ] 




Для Мосгорсуда, Роскомнадзора и рекламодателей:: mosgorsud-torrent[собачка]yandex.ru