Торрент файл
скачать торрент магнет ссылка Добавлен: 20 сен 2014, 11:33
Размер: 29.04 ГБ
Сидеров: 38
Личеров: 41
Автор

СообщениеДобавлено: 10 авг 2014, 11:50 

Не в сети
Аватара пользователя
Дата регистрации:
09 авг 2014, 12:07
Спасибо: 49 / 1
Сообщения: 156
Откуда: КРАСНОГОРСК
Выжившая/Род человеческий/За пределами / Extant



Год выпуска: 2014
Выпущено: США, Amblin Television, CBS Television Studios
Жанр: Фантастика, триллер, драма
Продолжительность: 00:41:00
Сезон: 1
Серия: 1-13
Количество серий в сезоне: 13
Озвучка:Профессиональная многоголосая закадровая(LostFilm_TV)
Субтитры: НЕТ


Сайт сериала:



Режиссер: Пэрис Барклай, Мэтт Эрл Бисли, Аллен Коултер

В ролях: Брэд Бейер, Холли Берри, Горан Вишнич, Пирс Гэнон, Камрин Менхейм, Тайлер Хилтон, Серджо Харфорд, Грэйс Гаммер, Майкл О’Нил, Жанетта Арнетт


Души не существует

Астронавт Молли Вудс возвращается из годовой космической экспедиции и узнает, что беременна. Тем временем ее муж, изобретатель, пытается протолкнуть свой проект, по внедрению роботов в человеческую жизнь. Чтобы доказать состоятельность проекта, он усыновляет первый прототип.

Создатели вложили в пилот все, что так любит современный зритель: интересные персонажи, загадки, фантастика, спецэффекты, немалый бюджет, роботы и космос. Несмотря на все это, сериал несколько перенасыщен драматически и слишком неспешно развивается.

Сценаристы попытались разнообразить историю, сделав фильм многогранным и растянуть возможные сюжетные линии. Герои неоднозначны, сюжет пока не складывается в цельную историю, и эту головоломку можно разгадывать довольно-таки долго.

Холли Берри пробует свои силы на тв. Пока ее героиня получила только толчок к развитию, поэтому об ее игре говорить рано.

Горан Вишнич старательно изображает верного мужа и достопочтенно отца семейства.

Складывается ощущение, что Хироюки Санада играет своего же героя из «Спирали».

Музыкальный ряд помогает видео ряду стать еще более насыщенным.

Еще одна попытка Стивена Спилберга закрепиться на малом экране. Говорить о результате пока слишком рано, но авторам удалось заинтриговать, а сравнения, уже на уровне пилота, с «Солярисом», «Женой астронавта», «Искуственным интеллектом» и «Я, роботом» только добавляют сериалу очков.


Качество : WEB-DLRip-AVC 1080p
Формат: MPEG-4
Видео кодек: H264
Видео: 7256ит/сек,1920х1080(16.9),в 25.000кадр/сек,AVC(Baseline@L4.0)(1Ref Frames)
Аудио кодек: AAC
Аудио Russian:295Кбит/сек,48.0КГц,2канала,AAC,(Version4)(LC)

Звуковая дорожка сделана путем наложения чистого голоса озвучивателей на центральный канал оригинальной дорожки. Качество идентично звуковой дорожке.



01. Возвращение / Reentry
02. Вымирание / Extinct
03. Жаль, что тебя здесь нет / Wish You Were Here
04. Убежище / Shelter
05 Что творится на Земле? (What on Earth Is Wrong?)
06 Кошмары (Nightmares)
07 Есть многое на свете... (More in Heaven and Earth)
08 Вторжение (Incursion)
09 Уход и кормление (Care and Feeding)
10 Колода карт (A Pack of Cards)
11 Новый мир (A New World)
12 До крови (Before the Blood)
3 Вознесение (Ascension)



General
Полное имя : D:\Ф А Н Т А С Т И К А +П Р И К Л Ю Ч Е Н И Я + Ф Э Н Т А З И\Род человеческий\EXTANT_2014_S01_RUS[LostFilm_TV]_x264_Nikolai.Baranov_WEB-DLRip-AVC_(1080p)\Extant_2014_S01Е01_RUS[LostFilm_TV]_x264_Nikolai.Baranov_WEB-DLRip-AVC_(1080p).mp4
Формат : MPEG-4
Профиль формата : Base Media
Идентификатор кодека : isom
Размер файла : 2.18 GiB
Продолжительность : 41mn 16s
Режим общего битрейта : Variable
Общий поток : 7 555 Kbps
Название фильма : ReJIiZ MediaClub by BenderBEST
Дата кодирования : UTC 2014-07-27 19:54:30
Дата пометки : UTC 2014-07-27 19:54:30
Программа кодирования : Lavf51.12.1

Video
Идентификатор : 1
Формат : AVC
Формат/Информация : Advanced Video Codec
Профиль формата : Baseline@L4.0
Параметр CABAC формата : No
Параметр ReFrames формата : 1 frame
Параметр GOP формата : M=1, N=12
Идентификатор кодека : avc1
Идентификатор кодека/Информация : Advanced Video Coding
Продолжительность : 41mn 16s
Вид битрейта : Variable
Битрейт : 7 256 Kbps
Максимальный битрейт : 10.5 Mbps
Ширина : 1 920 pixels
Высота : 1 080 pixels
Соотношение сторон : 16:9
Режим частоты кадров : Constant
Частота кадров : 25.000 fps
Частота кадров в оригинале : 24.000 fps
Цветовое пространство : YUV
Субдискретизация насыщенности : 4:2:0
Битовая глубина : 8 bits
Тип развёртки : Progressive
Бит/(Пиксели*Кадры) : 0.140
Размер потока : 2.09 GiB (96%)
Дата кодирования : UTC 2014-07-27 19:54:30
Дата пометки : UTC 2014-07-27 19:54:30

Audio
Идентификатор : 2
Формат : AAC
Формат/Информация : Advanced Audio Codec
Профиль формата : LC
Идентификатор кодека : 40
Продолжительность : 41mn 16s
Вид битрейта : Variable
Битрейт : 295 Kbps
Каналы : 2 channels
Channel(s)_Original : 6 channels
Расположение каналов : Front: L C R, Side: L R, LFE
Частота : 48.0 KHz
Метод сжатия : Lossy
Размер потока : 87.0 MiB (4%)
Дата кодирования : UTC 2014-07-27 19:54:30
Дата пометки : UTC 2014-07-27 19:54:30










1. Открыть торрент
2. Снять галки с тех файлов торрента, которые мы не хотим закачивать. Оставляем только на нужных нам файлах (файле).
3. Нажать О.К.

В клиенте utorrent

Инструкция

1) Открыть торрент


2) Снять галки с тех файлов торрента, которые мы не хотим закачивать:

* либо вручную, снимая с каждого файла галку( скрин №1)
* либо, нажав кнопку "Снять метки (Select None)", сняв сразу со всех файлов(скрин №2)
№1

№2

Оставляем только на нужных нам файлах (файле).

3)Нажать О.К





Внимание!!! 20.09. 2014. РАЗДАЧА ОБНОВЛЕНА.ФИНАЛ СЕЗОНА.ОБНОВИТЕ ТОРЕНТ ФАЙЛ.ПРИЯТНОГО ПРОСМОТРА .

Релиз от: Nikolai.Baranov







_________________

Легко быть оптимистом, когда судьба не валит с ног тяжелыми ударами, а лишь иногда легонько шлепает по заднице.



реклама партнёра


Вернуться к началу
 Профиль Отправить личное сообщение  
 
   Похожие торренты   Автор   Торрент   Размер 
В этой теме нет новых непрочитанных сообщений. За пределами / Выжившая / Род человеческий / Extant (Пэрис Барклай, Мэтт Эрл Бисли, Аллен Коултер) (Сезон 1-2, Серии 1-19 из 26) [2014-2015, Фантастика, триллер, драма, WEBDLRip-AVC][1080р] [DD5.1] [MVO] [LostFilm]

Враг Нароода

6 | 6

42.7 ГБ

В этой теме нет новых непрочитанных сообщений. За пределами /Род человеческий/Выжившая / Extant (Пэрис Барклай, Мэтт Эрл Бисли, Аллен Коултер) (сезон 1, серия 1-4 из 13) [2014, Фантастика, триллер, драма, WEBDLRip-AVC 1080р] [MVO] [LostFilm]

Baranov 55

1 | 2

8.84 ГБ

В этой теме нет новых непрочитанных сообщений. За пределами / Существующая / Extant [s01] (Пэрис Барклай, Мэтт Эрл Бисли, Аллен Култер) [2014, Фантастика, Триллер, Детектив, Драма, WEB-DLRip | LostFilm]

Nickolas3435

321 | 121

5.62 ГБ

В этой теме нет новых непрочитанных сообщений. За пределами / Существующая / Extant [s01] (Пэрис Барклай, Мэтт Эрл Бисли, Аллен Култер) [2014, Фантастика, Триллер, Детектив, Драма, WEB-DL 1080p | NewStudio]

Nickolas3435

41 | 51

21.29 ГБ

В этой теме нет новых непрочитанных сообщений. За пределами / Существующая / Extant [01х01-03 из 13] (Пэрис Барклай, Мэтт Эрл Бисли, Аллен Култер) [2014, Фантастика, Триллер, Детектив, Драма, WEB-DL 720p | Amedia]

Nickolas3435

42 | 23

4.29 ГБ

В этой теме нет новых непрочитанных сообщений. За пределами / Существующая / Extant [01х01-04 из 13] (Пэрис Барклай, Мэтт Эрл Бисли, Аллен Култер) [2014, Фантастика, Триллер, Детектив, Драма, HDTVRip | Amedia]

Nickolas3435

33 | 22

1.92 ГБ

В этой теме нет новых непрочитанных сообщений. За пределами / Существующая / Extant [01х01 из 13] (Пэрис Барклай, Мэтт Эрл Бисли, Аллен Култер) [2014, Фантастика, Триллер, Детектив, Драма, HDTVRip 720p | Amedia]

Nickolas3435

282 | 5

793.87 МБ


Начать новую тему Ответить на тему  [ 1 сообщение ] 




Для Мосгорсуда, Роскомнадзора и рекламодателей:: mosgorsud-torrent[собачка]yandex.ru