Торрент файл
скачать торрент магнет ссылка Добавлен: 10 авг 2014, 09:30
Размер: 2.82 ГБ
Сидеров: 266
Личеров: 38
Статус: (Dracon)
Автор

СообщениеДобавлено: 10 авг 2014, 09:30 

Не в сети
Зам. Админа
Аватара пользователя
Дата регистрации:
02 дек 2010, 12:39
Спасибо: 12458 / 214
Сообщения: 27968
Год выхода: 2014
Жанр: Криминал, мелодрама
Режиссер: Альбина Антипенко
В ролях: Серафима Огарёва, Макар Запорожский, Александр Константинов, Георгий Николаенко, Игорь Сигов, Вероника Пляшкевич, Андрей Сенькин, Игорь Денисов, Светлана Никифорова, Тамара Миронова, Артём Бородич, Денис Воронцов, Татьяна Чердынцева, Анатолий Гурьев, Андрей Душечкин, Александр Суцковер, Алексия Фроемчук

О фильме:
Когда речь идёт о любви, можно ли всё обдумать, просчитать? Что лучше послушать - своё сердце или голову? Можно использовать коварный план и слепой расчёт, но принесёт ли это счастье? Любовь и коварство всегда ходят рядом. История двух женщин, чьи судьбы переплелись в любви, предательстве и ненависти любовного треугольника...

Страна: Россия
Студия: кинокомпания "Студия Паламеда", продюсерский центр "Фабула"
Продолжительность: 2 x ~ 01:30:00
Перевод: Не требуется

Кодек: XviD
Качество: HDTVRip
Видео: 720x400 (1.80:1), 25 fps, XviD build 50 ~1958 kbps avg, 0.22 bit/pixel
Аудио: 48 kHz, AC3 Dolby Digital, 2/0 (L,R) ch, ~192.00 kbps avg
General
Complete name : Z:раздачиSlepoy.raschet.2014.HDTVRip.RG.Russkie.serialy.&.Files-xSlepoy.raschet.01.seriya.2014.HDTVRip.RG.Russkie.serialy.&.Files-x.avi
Format : AVI
Format/Info : Audio Video Interleave
File size : 1.45 GiB
Duration : 1h 33mn
Overall bit rate : 2 235 Kbps
Writing application : VirtualDubMod 1.5.10.3 | http://www.virtualdub-fr.org || (build 2550/release)
Writing library : VirtualDubMod build 2550/release

Video
ID : 0
Format : MPEG-4 Visual
Format profile : Advanced Simple@L5
Format settings, BVOP : 1
Format settings, QPel : No
Format settings, GMC : No warppoints
Format settings, Matrix : Default (H.263)
Codec ID : XVID
Codec ID/Hint : XviD
Duration : 1h 33mn
Bit rate : 2 034 Kbps
Width : 720 pixels
Height : 400 pixels
Display aspect ratio : 16:9
Frame rate : 25.000 fps
Color space : YUV
Chroma subsampling : 4:2:0
Bit depth : 8 bits
Scan type : Progressive
Compression mode : Lossy
Bits/(Pixel*Frame) : 0.282
Stream size : 1.32 GiB (91%)
Writing library : XviD 1.2.1 (UTC 2008-12-04)

Audio
ID : 1
Format : AC-3
Format/Info : Audio Coding 3
Mode extension : CM (complete main)
Format settings, Endianness : Big
Codec ID : 2000
Duration : 1h 33mn
Bit rate mode : Constant
Bit rate : 192 Kbps
Channel(s) : 2 channels
Channel positions : Front: L R
Sampling rate : 48.0 KHz
Bit depth : 16 bits
Compression mode : Lossy
Stream size : 128 MiB (9%)
Alignment : Split accross interleaves
Interleave, duration : 40 ms (1.00 video frame)
Interleave, preload duration : 500 ms






реклама партнёра


Вернуться к началу
 Профиль  
 
   Похожие торренты   Автор   Торрент   Размер 
В этой теме нет новых непрочитанных сообщений. Слепой расчет [4 из 4] [Драма, мелодрама,2014] SATRip

iopuk60

1 | 2

2.17 ГБ

В этой теме нет новых непрочитанных сообщений. Расчёт / The Clearing [Триллер, драма, криминал, 2004] BDRip 720p, Mvo+Avo+Sub

salma3

1 | 2

5.31 ГБ

В этой теме нет новых непрочитанных сообщений. Холодный расчет [01-04 из 04] (Андрей Балашов) [2014, Криминальная драма, SATRip]

Nickolas3435

196 | 9

2.15 ГБ

В этой теме нет новых непрочитанных сообщений. Храни её, любовь (Сергей Винокуров) [Мелодрама, криминал, 2014] HDTVRip

Dracon

524 | 21

1.46 ГБ

В этой теме нет новых непрочитанных сообщений. Чиста вода у истока [01-04 из 04] (Юрий Попович) [Мелодрама, криминал, 2014] HDTVRip

Dracon

177 | 14

2.15 ГБ

В этой теме нет новых непрочитанных сообщений. Расчет С-400 (Россия) [Документальный, Техника и Вооружение, 2015] WEBRip

Dracon

2 | 1

277.87 МБ

В этой теме нет новых непрочитанных сообщений. Надежда [01-02 из 02] [Мелодрама, 2014] HDTVRip

Dracon

65 | 2

2.73 ГБ


Начать новую тему Ответить на тему  [ 1 сообщение ] 




Для Мосгорсуда, Роскомнадзора и рекламодателей:: mosgorsud-torrent[собачка]yandex.ru