Торрент файл
скачать торрент магнет ссылка Добавлен: 06 авг 2014, 23:39
Размер: 5.72 ГБ
Сидеров: 141
Личеров: 42
Автор

СообщениеДобавлено: 06 авг 2014, 23:39 

Не в сети
Супермодератор
Аватара пользователя
Дата регистрации:
06 июн 2014, 07:51
Спасибо: 615 / 0
Сообщения: 2001
Информация о фильме
Название: Гоморра
Оригинальное название: Gomorra
Год выхода: 2014
Жанр: Криминал, драма, мафия
Режиссер: Стефано Соллима, Клаудио Купеллини, Франческа Коменчини
В ролях: Марко Д’Аморе, Фортунато Черлино, Мария Пиа Кальцоне, Сальваторе Эспозито, Марко Палветти, Доменико Бальзамо, Массимильяно Росси, Энзо Сачеттино, Элена Стараче, Антонио Мило

О фильме: Сериал "Гоморра" повествует об итальянской мафиозной корпорации несколько веков державшей в страхе весь Неаполь и в какой-то мере контролирующая его до сих пор. Сейчас все еще не оконченна война общества против бандитов и коррумпированных властей и мафиозные разборки здесь не хуже, чем на Сицилии.



Выпущено: Италия, Германия
Студия: Cattleya, Fandango, Sky
Продолжительность: 10 х ~ 00:55:00
Перевод: Профессиональный многоголосый

Файл
Кодек: XviD
Качество: HDTVRip
Видео: 1500 Кбит/с, 720x384
Звук:
Аудио: Русский (AC3, 2 ch, 192 Кбит/с) / Профессиональный многоголосый (Первый канал)

Семпл

Общее
Полное имя : F:...Gomorra.S01E01.HDTVRip.Rus.MediaClub.avi
Формат : AVI
Формат/Информация : Audio Video Interleave
Размер файла : 626 Мбайт
Продолжительность : 51 м.
Общий поток : 1702 Кбит/сек
Название фильма : Gomorra - Episode 1
Режиссёр : MediaClub
Программа кодирования : VirtualDubMod 1.5.10.2 (build 2540/release)

Видео
Идентификатор : 0
Формат : MPEG-4 Visual
Профиль формата : Advanced Simple@L5
Параметр BVOP формата : 2
Параметр QPel формата : Нет
Параметр GMC формата : Без точки перехода
Параметр матрицы формата : Default (MPEG)
Идентификатор кодека : XVID
Идентификатор кодека/Подсказка : XviD
Продолжительность : 51 м.
Битрейт : 1500 Кбит/сек
Ширина : 720 пикселей
Высота : 384 пикселя
Соотношение сторон : 1,85:1
Частота кадров : 25,000 кадров/сек
Цветовое пространство : YUV
Субдискретизация насыщенности : 4:2:0
Битовая глубина : 8 бит
Тип развёртки : Прогрессивная
Метод сжатия : С потерями
Бит/(Пиксели*Кадры) : 0.217
Размер потока : 552 Мбайт (88%)
Библиотека кодирования : XviD 1.2.1 (UTC 2008-12-04)

Аудио
Идентификатор : 1
Формат : AC-3
Формат/Информация : Audio Coding 3
Расширение режима : CM (complete main)
Параметр Endianness формата : Big
Идентификатор кодека : 2000
Продолжительность : 51 м.
Вид битрейта : Постоянный
Битрейт : 192 Кбит/сек
Каналы : 2 канала
Расположение каналов : Front: L R
Частота : 48,0 КГц
Битовая глубина : 16 бит
Метод сжатия : С потерями
Размер потока : 70,6 Мбайт (11%)
Выравнивание : Разделение по промежуткам
Продолжительность промежутка : 40 мс. (1,00 видеокадр)
Время предзагрузки промежутка : 500 мс.





реклама партнёра


Вернуться к началу
 Профиль Отправить личное сообщение  
 
   Похожие торренты   Автор   Торрент   Размер 
В этой теме нет новых непрочитанных сообщений. Субурра / Suburra (Стефано Соллима) [Криминал, драма, 2015] WEBRip, dvo

Dracon

3404 | 689

2.05 ГБ

В этой теме нет новых непрочитанных сообщений. Cубурра / Suburra (Стефано Соллима) [Криминал, драма, 2015] WEBRip 1080p, dvo

Dracon

1261 | 109

2.78 ГБ

В этой теме нет новых непрочитанных сообщений. Шерлок / Sherlock [04x00-03 из 03] [триллер, драма, криминал, детектив, 2017] HDTVRip [Первый канал]

Dracon

421 | 354

5.44 ГБ

В этой теме нет новых непрочитанных сообщений. Мегрэ расставляет сети / Maigret Sets a Trap [Триллер, драма, криминал, детектив, 2016] HDTVRip, Mvo [Первый Канал]

salma3

527 | 15

1.2 ГБ

В этой теме нет новых непрочитанных сообщений. Шерлок / Sherlock [04x01-02 из 03] (триллер, драма, криминал, детектив, 2017) HDTVRip 1080p от qqss44 | Первый канал | Локализованная версия

marya111

411 | 731

10.37 ГБ

В этой теме нет новых непрочитанных сообщений. Шерлок / Sherlock [04x01 из 03] (триллер, драма, криминал, детектив, 2017) HDTVRip 1080p от qqss44 | Первый канал | Локализованная версия

marya111

1668 | 223

5.18 ГБ

В этой теме нет новых непрочитанных сообщений. Налёт / Braquo [S04] [Триллер, криминал, 2016] HDTVRip, Mvo [Первый Канал]

salma3

30 | 21

4.69 ГБ


Начать новую тему Ответить на тему  [ 1 сообщение ] 




Для Мосгорсуда, Роскомнадзора и рекламодателей:: mosgorsud-torrent[собачка]yandex.ru