Торрент файл
скачать торрент магнет ссылка Добавлен: 29 июл 2014, 21:42
Размер: 174.56 ГБ
Сидеров: 12
Личеров: 22
Автор

СообщениеДобавлено: 29 июл 2014, 21:43 

Не в сети
2 Звезды
Аватара пользователя
Дата регистрации:
10 окт 2010, 20:23
Возраст: 61
Спасибо: 179 / 0
Сообщения: 323
Откуда: КРАСНОГОРСК
Во все тяжкие / Breaking Bad -СЕЗОНЫ: 1-5


Год выпуска: 2008-2013
Выпущено:Выпущено: США, American Movie Classics (AMC), Gran Via, High Bridge Productions, Sony Pictures Television
Жанр:: Драма / Триллер / Детектив /Криминал
Продолжительность эпизода: 00:47:00
Сезон:: 1-5
Серия:: 1-62
Количество серий в сезоне: 62
Озвучка:Профессиональная многоголосая закадровая(LostFilm_TV)
Субтитры: Русские, Английские

Сайт сериала:



Режиссер: Адам Бернштейн, Брайан Крэнстон

В ролях: Брайан Крэнстон, Анна Ганн, Аарон Пол, Дин Норрис, Бетси Брандт, Эр Джей, Стивен Майкл Квезада, Кристен Риттер, Дэвид Хаус, Кармен Серано и др...


Основная канва сюжета развивается вокруг школьного учителя химии Уолтера Уайта, который узнаёт, что он болен раком лёгких. Учитывая сложное финансовое состояние дел семьи, а также перспективы (жена Уолтера, Скайлер, беременна вторым ребёнком, а у сына детский паралич), Уолтер решается на аферу по приготовлению наркотика метамфетамина. Для этого привлекается бывший ученик Джесси Пинкман, когда-то исключенный из школы при активном содействии Уолтера, недавно потерявший партнёра по изготовлению наркотика, знающий «бизнес».
Третий сезон великолепного сериала Во все тяжкие, расскажет:
После смерти Джейн, Уолтер и Джесси пошли своими жизненными путями. Гус предлагает Хайзенбергу работать на него. Он отстраивает для него супер лабораторию, по последнему слову, с условием, что в неделю Уайт будет производить 90 килограммов синего мет – амфетамина. Гус предлагает ему 3 миллиона долларов. Скайлер узнает о всех грязных делах своего мужа и подаёт на развод. Уолтера младшего она разумеется держит в неведении. Между тем, двое загадочных мексиканцев разыскивают Хайзенберга, чтоб отомстить ему за смерть Туко.


Качество : ВDRip-AVC 1080p (BDRemux 1080p)
Формат: MPEG-4
Кодек: H264
Видео: 8276Кбит/сек,1920х1080(16.9),в 25.000кадр/сек,AVC(Baseline@L4.0)(1Ref Frames)
Кодек: AAC
Звук Russian:496Кбит/сек,48.0КГц,2канала,AAC,(Version4)(LC)

ВНИМАНИЕ!!! В фильме присутствует ненормативная лексика, сцены насилия, секса и жестокости! Не рекомендуется для семейного просмотра с детьми.


01. Pilot / Пилот
02. Cat's in the Bag.../ Кот уже в мешке...
03. ...And the Bag's in the River / А мешок уже в реке
04. Cancer Man / Раковый больной
05. Gray Matter / Серое вещество
06. Crazy Handful of Nothin'/ Блеф на пустой руке
07. A No-Rough-Stuff-Type Deal / Тихий бизнес без суеты и напрягов




01. Seven Thirty-Seven / Семьсот тридцать семь
02. Grilled / Попандос
03. Bit by a Dead Bee / Укус мертвой пчелы
04. Down / На дне
05. Breakage / Бой товара
06. Peekaboo / Ку-ку
07. Negro Y Azul / Синий мет на черном рынке
08. Better Call Saul / Надо звонить Солу!
09. 4 Days Out / 4 дня на природе
10. Over / Всё
11. Mandala / Мандала
12. Phoenix / Феникс
13. ABQ / АБК




01. No Mas / Баста
02. Caballo sin nombre / Конь без клички
03. I.F.T. / Я.Т.Т.
04. Green Light / Зеленый цвет
05. Mas / По новой
06. Sunset / На закате
07. One Minute / Одна минута
08. I See You / Я тебя вижу
09. Kafkaesque / По-кафкиански
10. Fly / Муха
11. Abiquiu / Абикиу
12. Half Measures / Полумеры
13. Full Measure / Полная мера




01. Box Cutter / Канцелярский нож
02. Thirty-Eight Snub / Тридцать восьмой, курносый
03. Open House / День открытых дверей
04. Bullet Points / Ключевые моменты
05. Shotgun / Боец
06. Cornered / В углу
07. Problem Dog / Проблемный пёс
08. Hermanos / Братья
09. Bug / Жучок
10. Salud
11. Crawl Space / Подпол
12. End Times / Конец света
13. Face Off / Кто кого




01. Live Free or Die / Живи Свободным или Умри
02. Madrigal / Мадригал
03. Hazard Pay / Опасные Условия
04. Fifty-One / 51
05. Dead Freight / Недогруз
06. Buyout / Выкуп
07. Say My Name / Назови Мое Имя
08. Gliding Over All / Паря Над Всем
09. Blood Money / Кровавые Деньги
10. Buried / Зарытое
11. Confessions / Признания
12. Rabid Dog / Бешеный Пёс
13. To'hajiilee / Тохаджили
14. Ozymandias / Озимандий
15. Granite State / Гранитный Штат
16. FeLiNa / ФеЛина - Финал Сериала



General
Полное имя : F:\К И Н О\Д Е Т Е К Т И В\В О В С Е Т Я Ж К И Е\BREAKING_BAD_2008_-_2013_S01_-_S05_RUS[LostFilm_TV]_x264_Nikolai.Baranov_ВDRip-AVC_(1080p)\S01\Breaking_Bad_2008_S01E01_RUS[LostFilm_TV]_x264_Nikolai.Baranov_ВDRip-AVC_(1080p).mp4
Формат : MPEG-4
Профиль формата : Base Media
Идентификатор кодека : isom
Размер файла : 3.56 GiB
Продолжительность : 58mn 6s
Режим общего битрейта : Variable
Общий поток : 8 779 Kbps
Название фильма : Release for HDCLUB by -lostrator-
Дата кодирования : UTC 2014-07-07 11:37:15
Дата пометки : UTC 2014-07-07 11:37:15
Программа кодирования : Lavf51.12.1

Video
Идентификатор : 1
Формат : AVC
Формат/Информация : Advanced Video Codec
Профиль формата : Baseline@L4.0
Параметр CABAC формата : No
Параметр ReFrames формата : 1 frame
Параметр GOP формата : M=1, N=12
Идентификатор кодека : avc1
Идентификатор кодека/Информация : Advanced Video Coding
Продолжительность : 58mn 6s
Вид битрейта : Variable
Битрейт : 8 278 Kbps
Максимальный битрейт : 12.0 Mbps
Ширина : 1 920 pixels
Высота : 1 080 pixels
Соотношение сторон : 16:9
Режим частоты кадров : Constant
Частота кадров : 25.000 fps
Частота кадров в оригинале : 24.000 fps
Цветовое пространство : YUV
Субдискретизация насыщенности : 4:2:0
Битовая глубина : 8 bits
Тип развёртки : Progressive
Бит/(Пиксели*Кадры) : 0.160
Размер потока : 3.36 GiB (94%)
Язык : English
Дата кодирования : UTC 2014-07-07 11:37:15
Дата пометки : UTC 2014-07-07 11:37:15

Audio
Идентификатор : 2
Формат : AAC
Формат/Информация : Advanced Audio Codec
Профиль формата : LC
Идентификатор кодека : 40
Продолжительность : 58mn 6s
Вид битрейта : Variable
Битрейт : 496 Kbps
Каналы : 2 channels
Channel(s)_Original : 6 channels
Расположение каналов : Front: L C R, Side: L R, LFE
Частота : 48.0 KHz
Метод сжатия : Lossy
Размер потока : 206 MiB (6%)
Язык : Russian
Дата кодирования : UTC 2014-07-07 11:37:15
Дата пометки : UTC 2014-07-07 11:37:15


General
Полное имя : F:\К И Н О\Д Е Т Е К Т И В\В О В С Е Т Я Ж К И Е\BREAKING_BAD_2008_-_2013_S01_-_S05_RUS[LostFilm_TV]_x264_Nikolai.Baranov_ВDRip-AVC_(1080p)\S02\Breaking_Bad_2009_S02E01_RUS[LostFilm_TV]_x264_Nikolai.Baranov_ВDRip-AVC_(1080p).mp4
Формат : MPEG-4
Профиль формата : Base Media
Идентификатор кодека : isom
Размер файла : 2.88 GiB
Продолжительность : 47mn 15s
Режим общего битрейта : Variable
Общий поток : 8 730 Kbps
Название фильма : Release for HDCLUB by -lostrator-
Дата кодирования : UTC 2014-07-09 08:49:42
Дата пометки : UTC 2014-07-09 08:49:42
Программа кодирования : Lavf51.12.1

Video
Идентификатор : 1
Формат : AVC
Формат/Информация : Advanced Video Codec
Профиль формата : Baseline@L4.0
Параметр CABAC формата : No
Параметр ReFrames формата : 1 frame
Параметр GOP формата : M=1, N=12
Идентификатор кодека : avc1
Идентификатор кодека/Информация : Advanced Video Coding
Продолжительность : 47mn 15s
Вид битрейта : Variable
Битрейт : 8 287 Kbps
Максимальный битрейт : 12.0 Mbps
Ширина : 1 920 pixels
Высота : 1 080 pixels
Соотношение сторон : 16:9
Режим частоты кадров : Constant
Частота кадров : 25.000 fps
Частота кадров в оригинале : 24.000 fps
Цветовое пространство : YUV
Субдискретизация насыщенности : 4:2:0
Битовая глубина : 8 bits
Тип развёртки : Progressive
Бит/(Пиксели*Кадры) : 0.160
Размер потока : 2.74 GiB (95%)
Язык : English
Дата кодирования : UTC 2014-07-09 08:49:42
Дата пометки : UTC 2014-07-09 08:49:42

Audio
Идентификатор : 2
Формат : AAC
Формат/Информация : Advanced Audio Codec
Профиль формата : LC
Идентификатор кодека : 40
Продолжительность : 47mn 15s
Вид битрейта : Variable
Битрейт : 439 Kbps
Каналы : 2 channels
Channel(s)_Original : 6 channels
Расположение каналов : Front: L C R, Side: L R, LFE
Частота : 48.0 KHz
Метод сжатия : Lossy
Размер потока : 148 MiB (5%)
Язык : Russian
Дата кодирования : UTC 2014-07-09 08:49:42
Дата пометки : UTC 2014-07-09 08:49:42



General
Полное имя : F:\К И Н О\Д Е Т Е К Т И В\В О В С Е Т Я Ж К И Е\BREAKING_BAD_2008_-_2013_S01_-_S05_RUS[LostFilm_TV]_x264_Nikolai.Baranov_ВDRip-AVC_(1080p)\SO3\Breaking_Bad_2010_S03E01_RUS[LostFilm_TV]_x264_Nikolai.Baranov_ВDRip-AVC_(1080p).mp4
Формат : MPEG-4
Профиль формата : Base Media
Идентификатор кодека : isom
Размер файла : 2.89 GiB
Продолжительность : 47mn 12s
Режим общего битрейта : Variable
Общий поток : 8 775 Kbps
Название фильма : Release for HDCLUB by -lostrator-
Дата кодирования : UTC 2014-07-05 09:51:23
Дата пометки : UTC 2014-07-05 09:51:23
Программа кодирования : Lavf51.12.1

Video
Идентификатор : 1
Формат : AVC
Формат/Информация : Advanced Video Codec
Профиль формата : Baseline@L4.0
Параметр CABAC формата : No
Параметр ReFrames формата : 1 frame
Параметр GOP формата : M=1, N=12
Идентификатор кодека : avc1
Идентификатор кодека/Информация : Advanced Video Coding
Продолжительность : 47mn 12s
Вид битрейта : Variable
Битрейт : 8 310 Kbps
Максимальный битрейт : 12.0 Mbps
Ширина : 1 920 pixels
Высота : 1 080 pixels
Соотношение сторон : 16:9
Режим частоты кадров : Constant
Частота кадров : 25.000 fps
Частота кадров в оригинале : 24.000 fps
Цветовое пространство : YUV
Субдискретизация насыщенности : 4:2:0
Битовая глубина : 8 bits
Тип развёртки : Progressive
Бит/(Пиксели*Кадры) : 0.160
Размер потока : 2.74 GiB (95%)
Дата кодирования : UTC 2014-07-05 09:51:23
Дата пометки : UTC 2014-07-05 09:51:23

Audio
Идентификатор : 2
Формат : AAC
Формат/Информация : Advanced Audio Codec
Профиль формата : LC
Идентификатор кодека : 40
Продолжительность : 47mn 12s
Вид битрейта : Variable
Битрейт : 460 Kbps
Каналы : 2 channels
Channel(s)_Original : 6 channels
Расположение каналов : Front: L C R, Side: L R, LFE
Частота : 48.0 KHz
Метод сжатия : Lossy
Размер потока : 155 MiB (5%)
Язык : Russian
Дата кодирования : UTC 2014-07-05 09:51:23
Дата пометки : UTC 2014-07-05 09:51:23


General
Полное имя : F:\К И Н О\Д Е Т Е К Т И В\В О В С Е Т Я Ж К И Е\BREAKING_BAD_2008_-_2013_S01_-_S05_RUS[LostFilm_TV]_x264_Nikolai.Baranov_ВDRip-AVC_(1080p)\S04\Breaking_Bad_2011_S04E01_RUS[LostFilm_TV]_x264_Nikolai.Baranov_ВDRip-AVC_(1080p).mp4
Формат : MPEG-4
Профиль формата : Base Media
Идентификатор кодека : isom
Размер файла : 2.90 GiB
Продолжительность : 47mn 11s
Режим общего битрейта : Variable
Общий поток : 8 791 Kbps
Название фильма : Release for HDCLUB by -lostrator-
Дата кодирования : UTC 2014-07-14 06:02:07
Дата пометки : UTC 2014-07-14 06:02:07
Программа кодирования : Lavf51.12.1

Video
Идентификатор : 1
Формат : AVC
Формат/Информация : Advanced Video Codec
Профиль формата : Baseline@L4.0
Параметр CABAC формата : No
Параметр ReFrames формата : 1 frame
Параметр GOP формата : M=1, N=12
Идентификатор кодека : avc1
Идентификатор кодека/Информация : Advanced Video Coding
Продолжительность : 47mn 11s
Вид битрейта : Variable
Битрейт : 8 292 Kbps
Максимальный битрейт : 12.0 Mbps
Ширина : 1 920 pixels
Высота : 1 080 pixels
Соотношение сторон : 16:9
Режим частоты кадров : Constant
Частота кадров : 25.000 fps
Частота кадров в оригинале : 24.000 fps
Цветовое пространство : YUV
Субдискретизация насыщенности : 4:2:0
Битовая глубина : 8 bits
Тип развёртки : Progressive
Бит/(Пиксели*Кадры) : 0.160
Размер потока : 2.73 GiB (94%)
Дата кодирования : UTC 2014-07-14 06:02:07
Дата пометки : UTC 2014-07-14 06:02:07

Audio
Идентификатор : 2
Формат : AAC
Формат/Информация : Advanced Audio Codec
Профиль формата : LC
Идентификатор кодека : 40
Продолжительность : 47mn 11s
Вид битрейта : Variable
Битрейт : 495 Kbps
Каналы : 2 channels
Channel(s)_Original : 6 channels
Расположение каналов : Front: L C R, Side: L R, LFE
Частота : 48.0 KHz
Метод сжатия : Lossy
Размер потока : 167 MiB (6%)
Язык : Russian
Дата кодирования : UTC 2014-07-14 06:02:07
Дата пометки : UTC 2014-07-14 06:02:07



General
Полное имя : F:\К И Н О\Д Е Т Е К Т И В\В О В С Е Т Я Ж К И Е\BREAKING_BAD_2008_-_2013_S01_-_S05_RUS[LostFilm_TV]_x264_Nikolai.Baranov_ВDRip-AVC_(1080p)\S05\Breaking_Bad_2013_S05E01_RUS[LostFilm_TV]_x264_Nikolai.Baranov_ВDRip-AVC_(1080p).mp4
Формат : MPEG-4
Профиль формата : Base Media
Идентификатор кодека : isom
Размер файла : 2.61 GiB
Продолжительность : 43mn 28s
Режим общего битрейта : Variable
Общий поток : 8 609 Kbps
Название фильма : Release for HDCLUB by -lostrator-
Дата кодирования : UTC 2014-07-10 19:51:21
Дата пометки : UTC 2014-07-10 19:51:21
Программа кодирования : Lavf51.12.1

Video
Идентификатор : 1
Формат : AVC
Формат/Информация : Advanced Video Codec
Профиль формата : Baseline@L4.0
Параметр CABAC формата : No
Параметр ReFrames формата : 1 frame
Параметр GOP формата : M=1, N=12
Идентификатор кодека : avc1
Идентификатор кодека/Информация : Advanced Video Coding
Продолжительность : 42mn 58s
Вид битрейта : Variable
Битрейт : 8 275 Kbps
Максимальный битрейт : 12.0 Mbps
Ширина : 1 920 pixels
Высота : 1 080 pixels
Соотношение сторон : 16:9
Режим частоты кадров : Constant
Частота кадров : 25.000 fps
Частота кадров в оригинале : 24.000 fps
Цветовое пространство : YUV
Субдискретизация насыщенности : 4:2:0
Битовая глубина : 8 bits
Тип развёртки : Progressive
Бит/(Пиксели*Кадры) : 0.160
Размер потока : 2.48 GiB (95%)
Дата кодирования : UTC 2014-07-10 19:51:21
Дата пометки : UTC 2014-07-10 19:51:21

Audio
Идентификатор : 2
Формат : AAC
Формат/Информация : Advanced Audio Codec
Профиль формата : LC
Идентификатор кодека : 40
Продолжительность : 43mn 28s
Вид битрейта : Variable
Битрейт : 425 Kbps
Каналы : 2 channels
Channel(s)_Original : 6 channels
Расположение каналов : Front: L C R, Side: L R, LFE
Частота : 48.0 KHz
Метод сжатия : Lossy
Размер потока : 132 MiB (5%)
Язык : Russian
Дата кодирования : UTC 2014-07-10 19:51:21
Дата пометки : UTC 2014-07-10 19:51:21



СЕРИАЛ, КАТЕГОРИЧЕСКИ РЕКОМЕНДОВАННЫЙ К ПРОСМОТРУ.


[align=center]



[/align]


[align=center]

[/align]


[align=center]

[/align]


[align=center]

[/align]


[align=center]

[/align]


1сезон

2сезон

3сезон

4сезон

5сезон

1. Открыть торрент
2. Снять галки с тех файлов торрента, которые мы не хотим закачивать. Оставляем только на нужных нам файлах (файле).
3. Нажать О.К.

Как докачать пропущенные файлы торрента:
1. Выделяем торрент одним нажатием левой кнопкой мыши.
2. Заходим на вкладку "Files (Файлы)"
3. И меняем нажатием правой кнопкой мыши приоритет на " Normal (нормальный)"

[b]Как скачать одну серию из папки


Вы хотите скачать одну серию из сезона, а он раздается сразу целиком одним торрентом?

Всё элементарно

1. Сначала нажимаем на кнопку "Скачать"



2. Далее "Открыть"



3. Снимаем галочки, и ставим их на те серии, которые хотите скачать
[hr]





Релиз от: Nikolai.Baranov







_________________

Легко быть оптимистом, когда судьба не валит с ног тяжелыми ударами, а лишь иногда легонько шлепает по заднице.



реклама партнёра


Вернуться к началу
 Профиль Отправить личное сообщение  
 
   Похожие торренты   Автор   Торрент   Размер 
В этой теме нет новых непрочитанных сообщений. Лучше звоните Солу / Better Call Saul (Сезон 2, Серия 1-6 из 10) (Колин Бакси, Адам Бернштейн, Винс Гиллиган) [2016 , Драма, комедия, криминал , WEB-DLRip 1080p] [Kravec , LostFilm , NewStudio , Jaskier] + [Subs Rus , Eng]

Враг Нароода

0 | 0

13.57 ГБ

В этой теме нет новых непрочитанных сообщений. Лучше звоните Солу / Better Call Saul (Сезон 2, Серия 1-10 из 10) (Колин Бакси, Адам Бернштейн, Винс Гиллиган) [2016 , Драма, комедия, криминал , WEB-DLRip 1080p] [Kravec , LostFilm , NewStudio , Jaskier , English] + [Subs Rus , Eng]

Враг Нароода

0 | 0

22.88 ГБ

В этой теме нет новых непрочитанных сообщений. Лучше звоните Солу / Better Call Saul (Колин Бакси, Адам Бернштейн, Винс Гиллиган) Сезон 1, Серия 1-9 из 10) [2015, Драма, комедия, криминал , WEBDLRip] [MVO] [LostFilm]

Враг Нароода

0 | 2

9.62 ГБ

В этой теме нет новых непрочитанных сообщений. Элементарно / Elementary (Сезон 4-5, Серия 1-30 из 48) (Джон Полсон, Эндрю Бернштейн, Сет Манн ) [2015-2016 , Драма, Криминал, Детектив , WEB-DLRip-AVC 1080p] [MVO] [NewStudio , LostFilm , English] + [Subs Rus,ENG]

Враг Нароода

6 | 0

56.11 ГБ

В этой теме нет новых непрочитанных сообщений. Элементарно / Elementary (Сезон 4, Серия 1-18 из 24) (Джон Полсон, Эндрю Бернштейн, Сет Манн ) [2015-2016 , Драма, Криминал, Детектив , WEB-DLRip-AVC 1080p] [MVO] [NewStudio , LostFilm , English] + [Subs Rus,ENG]

Враг Нароода

0 | 0

33.6 ГБ

В этой теме нет новых непрочитанных сообщений. Фарго / Fargo [02х01-07 из 10] (Мэтт Шекман, Скотт Уинант, Адам Бернштейн) [2015, Драма, криминал, WEB-DL 1080p | LostFilm]

Nickolas3435

11 | 166

15.7 ГБ

В этой теме нет новых непрочитанных сообщений. Во все тяжкие / Breaking Bad [s05] [Триллер, драма, криминал, 2012-2013] BDRip 720p, 2Mvo+Sub

salma3

107 | 34

42.11 ГБ


Начать новую тему Ответить на тему  [ 1 сообщение ] 




Для Мосгорсуда, Роскомнадзора и рекламодателей:: mosgorsud-torrent[собачка]yandex.ru