Торрент файл
скачать торрент магнет ссылка Добавлен: 25 июл 2014, 16:22
Размер: 2.17 ГБ
Сидеров: 0
Личеров: 3
Автор

СообщениеДобавлено: 25 июл 2014, 16:28 

Не в сети
Аватара пользователя
Дата регистрации:
26 ноя 2013, 12:32
Возраст: 57
Спасибо: 54 / 8
Сообщения: 66
Откуда: СССР
Год выпуска: 2014
Выпущено: Россия ,Свэлл Фильм
Жанр: Драма,мелодрама
Перевод: Не требуется
Режиссер: Егор Грамматиков
В ролях: Владимир Яглыч, Евгения Туркова, Александра Мареева, Сергей Селин, Алексей Ильин, Кирилл Нагиев, Елена Лотова, Наталья Рычкова, Вячеслав Шихалеев, Олег Соколдынский, Антон Ксенев, Екатерина Александрушкина, Роман Агеев, Николай Точилин, Илья Ильин, Борис Миронов, Юлия Бурова, Денис Давыдов, Василий Щипицын, Дмитрий Медведев, Юрий Тарасов, Сергей Барабаш, Анна Казючиц, Юрий Яфаев, Антон Момот, Денис Старков, Елена Муравьёва, Елена Махова, Анна Ходюш, Алексей Франдетти, Александр Усердин
О фильме: Действие сериала начинается в сложный для России исторический период — начало 90-х. Главного героя картины осуждают за несовершенное преступление, в наши дни он выходит из тюрьмы и пытается доказать, что был осужден несправедливо…
Сэмпл
Качество: WEBRip
Видео: 720x400 (1.80:1), 25 fps, XviD MPEG-4 ~1572 kbps avg, 0.22 bit/pixel
Аудио: 48 kHz, AC3 Dolby Digital, 2/0 (L,R) ch, ~192 kbps
Продолжительность: 4 х ~ 00:45:00
Общее
Полное имя : D:\Prosti_menja_mama_1-4iz4_2014_XviD_WEBRip\Prosti_menja_mama_1_iz_4_2014_WEBRip.avi
Формат : AVI
Формат/Информация : Audio Video Interleave
Размер файла : 555 Мбайт
Продолжительность : 43 м.
Общий поток : 1775 Кбит/сек
Программа кодирования : VirtualDubMod 1.5.10.3 | http://www.virtualdub-fr.org || (build 2550/release)
Библиотека кодирования : VirtualDub build 35491/release

Видео
Идентификатор : 0
Формат : MPEG-4 Visual
Профиль формата : Advanced Simple@L5
Параметр BVOP формата : 2
Параметр QPel формата : Нет
Параметр GMC формата : Без точки перехода
Параметр матрицы формата : Default (H.263)
Режим смешивания : Сжатый битовый поток
Идентификатор кодека : XVID
Идентификатор кодека/Подсказка : XviD
Продолжительность : 43 м.
Битрейт : 1573 Кбит/сек
Ширина : 720 пикселей
Высота : 400 пикселей
Соотношение сторон : 16:9
Частота кадров : 25,000 кадров/сек
Цветовое пространство : YUV
Субдискретизация насыщенности : 4:2:0
Битовая глубина : 8 бит
Тип развёртки : Прогрессивная
Метод сжатия : С потерями
Бит/(Пиксели*Кадры) : 0.218
Размер потока : 492 Мбайт (89%)
Библиотека кодирования : XviD 65

Аудио
Идентификатор : 1
Формат : AC-3
Формат/Информация : Audio Coding 3
Расширение режима : CM (complete main)
Параметр Endianness формата : Big
Идентификатор кодека : 2000
Продолжительность : 43 м.
Вид битрейта : Постоянный
Битрейт : 192 Кбит/сек
Каналы : 2 канала
Расположение каналов : Front: L R
Частота : 48,0 КГц
Битовая глубина : 16 бит
Метод сжатия : С потерями
Размер потока : 60,1 Мбайт (11%)
Выравнивание : Соединение по промежуткам
Продолжительность промежутка : 40 мс. (1,00 видеокадр)
Время предзагрузки промежутка : 512 мс.




реклама партнёра


Вернуться к началу
 Профиль Отправить личное сообщение  
 
   Похожие торренты   Автор   Торрент   Размер 
В этой теме нет новых непрочитанных сообщений. Мама по контракту [01-12 из 12] [Мелодрама, 2015] WEBRip 720p

Dracon

131 | 32

14.34 ГБ

В этой теме нет новых непрочитанных сообщений. Прости за любовь / Perdona si te llamo amor [Мелодрама, 2014] HDRip, dub [чистый звук]

Dracon

7 | 3

1.46 ГБ

В этой теме нет новых непрочитанных сообщений. Мама по контракту [01-10 из 12] (Анна Уколова, Агриппина Стеклова...) [Мелодрама, 2015] WEBRip

Dracon

5 | 1

6.76 ГБ

В этой теме нет новых непрочитанных сообщений. Прости за любовь / Perdona si te llamo amor (Хоакин Льямас) [Мелодрама, 2014] HDRip, Dub [iTunes]

Dracon

2 | 0

2.19 ГБ

В этой теме нет новых непрочитанных сообщений. Прости за любовь / Perdona si te llamo amor (Хоакин Льямас) [Мелодрама, 2014] HDRip, Dub [iTunes]

Dracon

1 | 0

1.46 ГБ

В этой теме нет новых непрочитанных сообщений. Прости за любовь / Perdona si te llamo amor [Мелодрама, 2014] BDRip 720p, dub [чистый звук]

Dracon

12 | 6

5.72 ГБ

В этой теме нет новых непрочитанных сообщений. Прости за любовь / Perdona si te llamo amor (Хоакин Льямас) [Мелодрама, 2014] BDRip 720p, Dub [iTunes]

Dracon

0 | 0

6.97 ГБ


Начать новую тему Ответить на тему  [ 1 сообщение ] 




Для Мосгорсуда, Роскомнадзора и рекламодателей:: mosgorsud-torrent[собачка]yandex.ru