Торрент файл
скачать торрент магнет ссылка Добавлен: 12 июл 2014, 14:04
Размер: 1.08 ГБ
Сидеров: 0
Личеров: 2
Статус: (salma3)
Автор

СообщениеДобавлено: 12 июл 2014, 14:09 

Не в сети
Аватара пользователя
Дата регистрации:
26 ноя 2013, 12:32
Возраст: 56
Спасибо: 52 / 7
Сообщения: 66
Откуда: СССР
Год выпуска: 2013
Выпущено: Россия ,"Единая медиа группа"
Жанр: Комедия, музыкальный фильм
Перевод: Не требуется
Режиссер: Леонид Мазор
В ролях: Александр Асташёнок, Татьяна Рыбинец, Валерий Афанасьев, Ирина Бякова, Анатолий Калмыков
О фильме: История о молодом человеке, живущем в городском мире, со своими законами и увлечениями. Эти «увлечения» приводят героя к ситуации, когда жизнь становится дороже любых приключений. Случайная встреча с простой сельской девушкой в корне меняет всю его жизнь. Главную роль в ленте играет Александр Асташенок - российский музыкант, актер, бывший солист группы "Корни" и победитель первой "Фабрики Звезд".
Сэмпл
Качество: HDTVRip
Видео: 720x400 (1.80:1), 25 fps, XviD MPEG-4 ~1588 kbps avg, 0.22 bit/pixel
Аудио: 48 kHz, AC3 Dolby Digital, 2/0 (L,R) ch, ~192 kbps
Продолжительность: 12 x ~00:45:00
Общее
Полное имя : D:\Karnaval_po_nashemu_1-2iz2_2014_XviD_HDTVRip\Karnaval_po_nashemu_1_iz_2_2014_HDTVRip.avi
Формат : AVI
Формат/Информация : Audio Video Interleave
Размер файла : 555 Мбайт
Продолжительность : 43 м.
Общий поток : 1790 Кбит/сек
Программа кодирования : VirtualDubMod 1.5.10.3 | http://www.virtualdub-fr.org || (build 2550/release)
Библиотека кодирования : VirtualDub build 35491/release

Видео
Идентификатор : 0
Формат : MPEG-4 Visual
Профиль формата : Advanced Simple@L5
Параметр BVOP формата : 2
Параметр QPel формата : Нет
Параметр GMC формата : Без точки перехода
Параметр матрицы формата : Default (H.263)
Режим смешивания : Сжатый битовый поток
Идентификатор кодека : XVID
Идентификатор кодека/Подсказка : XviD
Продолжительность : 43 м.
Битрейт : 1588 Кбит/сек
Ширина : 720 пикселей
Высота : 400 пикселей
Соотношение сторон : 16:9
Частота кадров : 25,000 кадров/сек
Цветовое пространство : YUV
Субдискретизация насыщенности : 4:2:0
Битовая глубина : 8 бит
Тип развёртки : Прогрессивная
Метод сжатия : С потерями
Бит/(Пиксели*Кадры) : 0.221
Размер потока : 493 Мбайт (89%)
Библиотека кодирования : XviD 65

Аудио
Идентификатор : 1
Формат : AC-3
Формат/Информация : Audio Coding 3
Расширение режима : CM (complete main)
Параметр Endianness формата : Big
Идентификатор кодека : 2000
Продолжительность : 43 м.
Вид битрейта : Постоянный
Битрейт : 192 Кбит/сек
Каналы : 2 канала
Расположение каналов : Front: L R
Частота : 48,0 КГц
Битовая глубина : 16 бит
Метод сжатия : С потерями
Размер потока : 59,5 Мбайт (11%)
Выравнивание : Соединение по промежуткам
Продолжительность промежутка : 40 мс. (1,00 видеокадр)
Время предзагрузки промежутка : 512 мс.





реклама партнёра


Вернуться к началу
 Профиль Отправить личное сообщение  
 
   Похожие торренты   Автор   Торрент   Размер 
В этой теме нет новых непрочитанных сообщений. Карнавал по-нашему [01-02 из 02] [Комедия, 2014] SATRip

Dracon

169 | 6

1.37 ГБ

В этой теме нет новых непрочитанных сообщений. Три богатыря [Музыкальный, комедия, фантазия, 2013] SATRip

Ανδρέας

В этой теме нет новых непрочитанных сообщений. Карнавал в Рио-де-Жанейро 2015 / Carnaval Rio de Janeiro 2015 (Бразилия) [танц-шоу, 2015] HDTVRip 720p

Dracon

10 | 6

27.57 ГБ

В этой теме нет новых непрочитанных сообщений. Красные горы [01-12 из 12] (Игорь Зайцев) [Боевик, военный фильм, исторический фильм, 2013] WEB-DL 720p

Dracon

337 | 124

10.83 ГБ

В этой теме нет новых непрочитанных сообщений. Дэвид Блейн. Реальность или магия / David Blaine. Real or Magic (Мэттью Эйкерс) [2013, Документальный, научно-популярный фильм, HDTVRip]

Nickolas3435

1343 | 15

790.32 МБ

В этой теме нет новых непрочитанных сообщений. Главная сцена [02x01-15 из 15] (ВГТРК) [Музыкальный конкурс, 2015] HDTVRip

Dracon

1 | 17

22.44 ГБ

В этой теме нет новых непрочитанных сообщений. Главная сцена [02x01-06] (ВГТРК) [Музыкальный конкурс, 2015] HDTVRip

Dracon

3 | 3

8.77 ГБ


Начать новую тему Ответить на тему  [ 1 сообщение ] 




Для Мосгорсуда, Роскомнадзора и рекламодателей:: mosgorsud-torrent[собачка]yandex.ru