Торрент файл
скачать торрент магнет ссылка Добавлен: 11 июл 2014, 15:49
Размер: 3.42 ГБ
Сидеров: 23
Личеров: 6
Статус: (salma3)
Автор

СообщениеДобавлено: 11 июл 2014, 15:49 

Не в сети
Супермодератор
Аватара пользователя
Дата регистрации:
15 фев 2012, 16:44
Возраст: 27
Спасибо: 5143 / 2090
Сообщения: 17495
Год выхода: 2004
Жанр: драма
Режиссер: Том Вон / Tom Vaughan

В ролях: Лора Фрейзер, Джеффри Палмер, Кристина Коул, Анна Мэсси, Джеральдин Джеймс, Стивен Кэмпбелл Мур, Мэгги Оллереншоу, Рэймонд Култхард, Дэвид Теннант, Клоди Блейкли, Фенелла Вулгар, Рон Кук, Билл Найи, Кэролайн Мартин,

О фильме:
Луис и Эмили Тревельян — «золотая» супружеская пара. Очаровательные, красивые, гордые родители маленького сына. Но когда крестный отец Эмили полковник Осборн начинает навещать ее гораздо чаще, чем этого требуют приличия, Луис считает своим долгом предостеречь жену. Уязвленная недоверием Эмили резко возражает. Супружеская идиллия рушится, и осколки былого счастья склеить практически невозможно.

Официальный сайт

Страна: Великобритания
Студия: BBC One
Продолжительность: ~00:59:00 серия
Перевод: Профессиональный (многоголосый, закадровый)

Файл
Кодек: DivX / AC3
Качество: DVDRip
Видео: MPEG4, DivX 5, 720x416 (16:9), 29.970 fps, 1 393 Kbps (0.155 bit/pixel)
Звук: AC-3, 48.0 KHz, 2 ch, 192 Kbps, CBR (Russian)

General
Complete name : /On.tak.i.znal(4.iz.4).2004.DivX.DVDRip/On.tak.i.znal.01.avi
Format : AVI
Format/Info : Audio Video Interleave
File size : 701 MiB
Duration : 59mn 1s
Overall bit rate : 1 659 Kbps
Writing application : VirtualDubMod 1.5.4.1 (build 2178/release)
Writing library : VirtualDubMod build 2178/release

Video
ID : 0
Format : MPEG-4 Visual
Format settings, BVOP : 1
Format settings, QPel : No
Format settings, GMC : No warppoints
Format settings, Matrix : Default (H.263)
Muxing mode : Packed bitstream
Codec ID : DX50
Codec ID/Hint : DivX 5
Duration : 59mn 1s
Bit rate : 1 393 Kbps
Width : 720 pixels
Height : 416 pixels
Display aspect ratio : 1.731
Frame rate : 29.970 fps
Color space : YUV
Chroma subsampling : 4:2:0
Bit depth : 8 bits
Scan type : Progressive
Compression mode : Lossy
Bits/(Pixel*Frame) : 0.155
Stream size : 588 MiB (84%)
Writing library : DivX 6.6.1.4

Audio
ID : 1
Format : AC-3
Format/Info : Audio Coding 3
Mode extension : CM (complete main)
Format settings, Endianness : Big
Codec ID : 2000
Duration : 59mn 1s
Bit rate mode : Constant
Bit rate : 192 Kbps
Channel(s) : 2 channels
Channel positions : Front: L R
Sampling rate : 48.0 KHz
Bit depth : 16 bits
Compression mode : Lossy
Stream size : 81.1 MiB (12%)
Alignment : Split accross interleaves
Language : Russian


_________________



реклама партнёра


Вернуться к началу
 Профиль Отправить личное сообщение  
 
   Похожие торренты   Автор   Торрент   Размер 
В этой теме нет новых непрочитанных сообщений. Развод в большом городе / What Maisie Knew [Драма, 2012] HDRip, Mvo

Dracon

102 | 4

1.37 ГБ

В этой теме нет новых непрочитанных сообщений. The World We Knew - Death Dealer [2011, Metalcore, Deathcore, MP3]

PriZraK

0 | 1

116.82 МБ

В этой теме нет новых непрочитанных сообщений. Main-de-Gloire - I Knew You Were Trouble (Single) [02.08.2013, Post-Hardcore,Electronic, MP3]

PriZraK

0 | 1

9.27 МБ

В этой теме нет новых непрочитанных сообщений. Персики / Peaches [Драма, 2004] DVDRip, Mvo

salma3

55 | 6

1.45 ГБ

В этой теме нет новых непрочитанных сообщений. Ирис / Iris [Драма, 2004] DVDRip, Mvo

salma3

39 | 2

1.46 ГБ

В этой теме нет новых непрочитанных сообщений. Инфекция / Kansen [ужасы, фантастика, драма, 2004] DVDRip, Dvo

salma3

19 | 2

1.37 ГБ

В этой теме нет новых непрочитанных сообщений. Инкассатор / Le Convoyeur [триллер, драма, криминал, 2004] DVDRip, Mvo

salma3

27 | 5

698.97 МБ


Начать новую тему Ответить на тему  [ 1 сообщение ] 




Для Мосгорсуда, Роскомнадзора и рекламодателей:: mosgorsud-torrent[собачка]yandex.ru