Торрент файл
скачать торрент магнет ссылка Добавлен: 10 июл 2014, 23:33
Размер: 4.37 ГБ
Сидеров: 697
Личеров: 48
Автор

СообщениеДобавлено: 10 июл 2014, 23:33 

Не в сети
Супермодератор
Аватара пользователя
Дата регистрации:
06 июн 2014, 07:51
Спасибо: 577 / 0
Сообщения: 2002
Год выпуска: 1999
Страна: Италия, Германия
Производство: France 2 (FR 2), Mediaset, Taurus Film
Жанр: приключения
Продолжительность: 06:26:19 (01:40:32+01:38:36+01:33:55+01:33:16)
Режиссер: Ламберто Бава / Lamberto Bava
В ролях:
Марио Адорф, Анна Фальчи, Дженнифер Нитш, Николас Роджерс, Паоло Седжанти, Ремо Джироне, Падма Лакшми, Франческо Касале, Микаэла Фленерова, Бранислав Мартинак, Джанни Музи, Хосе Антонио Родригез, Отто Шевчик...

Описание:
Они были братьями, но любили одну и ту же женщину. После ее случайной гибели один уходит на службу к королю Франции и становится капитаном флота его величества, другой становится знаменитым пиратом. Они поклялись убить друг друга. И судьба свела их на морских просторах в грандиозном противостоянии, в битве не на жизнь, а на смерть!


Исходник: 2хDVD9 R5
Тип релиза: DVDRip
Контейнер: AVI

Перевод: Профессиональный (многоголосый, закадровый)
Оригинальная аудиодорожка: нет
Cубтитры: нет
Видео: 688x512 (4:3), 25 fps, XviD ~ 1417 kbps avg, 0.161 bit/pixel
Аудио: 48 kHz, Dolby Digital AC3 2.0, 192 kbps

Общее
Полное имя : Piraty.1999.DVDRip_[New-team]_by_AVP_Studio.avi
Формат : AVI
Формат/Информация : Audio Video Interleave
Размер файла : 1,14 Гбайт
Продолжительность : 1 ч. 40 м.
Общий поток : 1619 Кбит/сек
Программа кодирования : VirtualDubModRus 1.5.10.2 (build 2542/release)
Библиотека кодирования : VirtualDubMod build 2542/release

Видео
Идентификатор : 0
Формат : MPEG-4 Visual
Профиль формата : Advanced Simple@L5
Параметр BVOP формата : 1
Параметр QPel формата : Нет
Параметр GMC формата : Без точки перехода
Параметр матрицы формата : Выборочная
Идентификатор кодека : XVID
Идентификатор кодека/Подсказка : XviD
Продолжительность : 1 ч. 40 м.
Битрейт : 1417 Кбит/сек
Ширина : 688 пикселей
Высота : 512 пикселей
Соотношение сторон : 4:3
Частота кадров : 25,000 кадров/сек
Цветовое пространство : YUV
Субдискретизация насыщенности : 4:2:0
Битовая глубина : 8 бит
Тип развёртки : Прогрессивная
Метод сжатия : С потерями
Бит/(Пиксели*Кадры) : 0.161
Размер потока : 1019 Мбайт (88%)
Библиотека кодирования : XviD 73

Аудио
Идентификатор : 1
Формат : AC-3
Формат/Информация : Audio Coding 3
Расширение режима : CM (complete main)
Параметр Endianness формата : Big
Идентификатор кодека : 2000
Продолжительность : 1 ч. 40 м.
Вид битрейта : Постоянный
Битрейт : 192 Кбит/сек
Каналы : 2 канала
Расположение каналов : Front: L R
Частота : 48,0 КГц
Битовая глубина : 16 бит
Метод сжатия : С потерями
Размер потока : 138 Мбайт (12%)
Выравнивание : Разделение по промежуткам
Продолжительность промежутка : 40 мс. (1,00 видеокадр)
Время предзагрузки промежутка : 500 мс





реклама партнёра


Вернуться к началу
 Профиль Отправить личное сообщение  
 
   Похожие торренты   Автор   Торрент   Размер 
В этой теме нет новых непрочитанных сообщений. Пираты побережья / I pirati della costa / Les pirates de la côte / Pirates of the Coast [Приключения, 1960] DVDRip, Avo

salma3

93 | 31

1.5 ГБ

В этой теме нет новых непрочитанных сообщений. Ледовые пираты / The Ice Pirates [фантастика, боевик, комедия, приключения, 1984] BDRip-AVC, Mvo+Sub

salma3

150 | 12

2.05 ГБ

В этой теме нет новых непрочитанных сообщений. Пираты Эгейского моря / O Theos agapaei to haviari [Приключения, биография, история, 2012] HDRip, Mvo

salma3

968 | 61

1.37 ГБ

В этой теме нет новых непрочитанных сообщений. Пираты / Pirates / Hae-jeok: Ba-da-ro gan san-jeok [история, комедия, приключения, 2014] HDRip, dvo [GREEN TEA]

Dracon

568 | 13

2.19 ГБ

В этой теме нет новых непрочитанных сообщений. Пираты / Pirates / Hae-jeok: Ba-da-ro gan san-jeok (Сок Хун Ли) [2014, история, комедия, приключения, HDTVRip 720p] dvo

Nickolas3435

1212 | 93

3.77 ГБ

В этой теме нет новых непрочитанных сообщений. Пираты / Pirates / Hae-jeok: Ba-da-ro gan san-jeok (Сок Хун Ли) [история, комедия, приключения, 2014] HDRip, dvo [GREEN TEA]

Dracon

1026 | 23

1.46 ГБ

В этой теме нет новых непрочитанных сообщений. Пираты Карибского моря: Мертвецы не рассказывают сказки / Pirates of the Caribbean: Dead Men Tell No Tales [Фэнтези, боевик, комедия, приключения, 2017] HDRip-1080p, Dub [Тизер]

salma3

1268 | 18

26.73 МБ


Начать новую тему Ответить на тему  [ 1 сообщение ] 




Для Мосгорсуда, Роскомнадзора и рекламодателей:: mosgorsud-torrent[собачка]yandex.ru