Торрент файл
скачать торрент магнет ссылка Добавлен: 07 июл 2014, 15:52
Размер: 41.38 ГБ
Сидеров: 2
Личеров: 4
Статус: (salma3)
Автор

СообщениеДобавлено: 07 июл 2014, 15:52 

В сети
Супермодератор
Аватара пользователя
Дата регистрации:
15 фев 2012, 16:44
Возраст: 28
Спасибо: 6409 / 2128
Сообщения: 37957
Звездный путь: Энтерпрайз / Star Trek: Enterprise /

Год выпуска: 2002-2003
Жанр: фантастика, боевик, приключения
Режиссер: Дэвид Ливингстон, Майкл Виджер

В ролях: Скотт Бакула, Джон Биллингсли, Джолин Блэлок, Доминик Китинг, Гэри Грэм, Коннор Триннир, Линда Парк, Рэнди Оглесби, Энтони Монтгомери

Описание: На дворе 22 век. Человечество, долго удерживаемое вулканцами в пределах Солнечной системы, наконец выходит в дальний космос. На исследование отправляется звездолет NX-01 «Энтерпрайз», построенный с использованием новейших технологий и оснащенный первым двигателем со скоростью Варп-5. Под командованием капитана Арчера, храброму экипажу придется исследовать десятки планет, столкнуться с множеством дружественных и враждебных цивилизаций, ввязаться во Временную холодную войну и спасти Землю от уничтожения расой Зинди, обитающей в таинственной Дельфийской зоне. Это история о первых шагах человечества в открытом космосе и рассказ о создании Объединенной Федерации Планет.



Страна: США | Paramount Network Television Productions
Продолжительность: 26 х ~00:44:00
Перевод: Профессиональный (многоголосый, закадровый) [СТС]
Субтитры: английские

Файл
Качество: BDRip 720p
Формат файла: MKV
Видео кодек: H.264
Аудио кодек: AC3
Видео: 1280x720p (16:9), 23.976 fps, AVC MPEG-4 (x264) High@L4.0 ~4416 kbps avg, 0.200 bit/pixel
Аудио#1: Русский 48 kHz, AC3, 6 ch ~ 448 Kbps [многоголосый]
Аудио#2: Английский 48 kHz, AC3, 6 ch ~ 448 Kbps [Оригинал]


Общее
Уникальный идентификатор : 181091671846381774880700581410359358527 (0x883CFCC2E43DF3E7816D97AE4136343F)
Полное имя : F:\TREKER\TEMP\star_trek_enterprise_s02_[tfile.ru]\star_trek_enterprise_s02_e01.mkv
Формат : Matroska
Версия формата : Version 2
Размер файла : 1,59 Гбайт
Продолжительность : 42 м.
Общий поток : 5313 Кбит/сек
Название фильма : star_trek_enterprise_s02_e01
Дата кодирования : UTC 2014-07-06 12:34:37
Программа кодирования : mkvmerge v4.0.0 ('The Stars were mine') сборка от Jun 6 2010 16:18:42
Библиотека кодирования : libebml v1.0.0 + libmatroska v1.0.0
Attachment : Yes

Видео
Идентификатор : 1
Формат : AVC
Формат/Информация : Advanced Video Codec
Профиль формата : High@L4.0
Параметр CABAC формата : Да
Параметр ReFrames формата : 9 кадров
Идентификатор кодека : V_MPEG4/ISO/AVC
Продолжительность : 42 м.
Битрейт : 4416 Кбит/сек
Ширина : 1280 пикселей
Высота : 720 пикселей
Соотношение сторон : 16:9
Режим частоты кадров : Постоянный
Частота кадров : 23,976 кадра/сек
Цветовое пространство : YUV
Субдискретизация насыщенности : 4:2:0
Битовая глубина : 8 бит
Тип развёртки : Прогрессивная
Бит/(Пиксели*Кадры) : 0.200
Размер потока : 1,29 Гбайт (81%)
Заголовок : star_trek_enterprise_s02_e01
Библиотека кодирования : x264 core 138 r2358 9e941d1
Настройки программы : cabac=1 / ref=9 / deblock=1:-3:-3 / analyse=0x3:0x133 / me=umh / subme=11 / psy=1 / psy_rd=1.05:0.05 / mixed_ref=1 / me_range=32 / chroma_me=1 / trellis=2 / 8x8dct=1 / cqm=0 / deadzone=21,11 / fast_pskip=0 / chroma_qp_offset=-3 / threads=6 / lookahead_threads=1 / sliced_threads=0 / nr=0 / decimate=0 / interlaced=0 / bluray_compat=0 / constrained_intra=0 / bframes=8 / b_pyramid=2 / b_adapt=2 / b_bias=0 / direct=3 / weightb=1 / open_gop=0 / weightp=2 / keyint=240 / keyint_min=23 / scenecut=40 / intra_refresh=0 / rc=2pass / mbtree=0 / bitrate=4416 / ratetol=1.0 / qcomp=0.65 / qpmin=0 / qpmax=69 / qpstep=4 / cplxblur=20.0 / qblur=0.5 / ip_ratio=1.40 / pb_ratio=1.30 / aq=1:1.00
Язык : English
Default : Нет
Forced : Нет

Аудио #1
Идентификатор : 2
Формат : AC-3
Формат/Информация : Audio Coding 3
Расширение режима : CM (complete main)
Параметр Endianness формата : Big
Идентификатор кодека : A_AC3
Продолжительность : 42 м.
Вид битрейта : Постоянный
Битрейт : 448 Кбит/сек
Каналы : 6 каналов
Расположение каналов : Front: L C R, Side: L R, LFE
Частота : 48,0 КГц
Битовая глубина : 16 бит
Метод сжатия : С потерями
Размер потока : 137 Мбайт (8%)
Заголовок : [Профессиональный (многоголосый, закадровый)(CТС)]
Язык : Russian
Default : Нет
Forced : Нет

Аудио #2
Идентификатор : 3
Формат : AC-3
Формат/Информация : Audio Coding 3
Расширение режима : CM (complete main)
Параметр Endianness формата : Big
Идентификатор кодека : A_AC3
Продолжительность : 42 м.
Вид битрейта : Постоянный
Битрейт : 448 Кбит/сек
Каналы : 6 каналов
Расположение каналов : Front: L C R, Side: L R, LFE
Частота : 48,0 КГц
Битовая глубина : 16 бит
Метод сжатия : С потерями
Размер потока : 137 Мбайт (8%)
Заголовок : [Оригинал]
Язык : English
Default : Нет
Forced : Нет

Текст
Идентификатор : 4
Формат : UTF-8
Идентификатор кодека : S_TEXT/UTF8
Идентификатор кодека/Информация : UTF-8 Plain Text
Язык : English
Default : Нет
Forced : Нет

Меню
00:00:00.000 : en:00:00:00.000
00:02:38.533 : en:00:02:38.533
00:04:00.949 : en:00:04:00.949
00:10:37.846 : en:00:10:37.846
00:21:03.929 : en:00:21:03.929
00:32:59.853 : en:00:32:59.853
00:42:00.518 : en:00:42:00.518




_________________
Проголосуй за трекер Открытый торрент трекер - RUS-MEDIA.ORG

Проголосуй Открытый торрент трекер - RUS-MEDIA.ORG



реклама партнёра


Вернуться к началу
 Профиль Отправить личное сообщение  
 
   Похожие торренты   Автор   Торрент   Размер 
В этой теме нет новых непрочитанных сообщений. Звездный путь: Восстание / Star Trek: Insurrection [фантастика, боевик, триллер, приключения, 1998] BDRip 1080p, 3Mvo+Avo+Sub

salma3

39 | 33

9.02 ГБ

В этой теме нет новых непрочитанных сообщений. Стартрек: Бесконечность / Star Trek Beyond (Фантастика, Боевик, Триллер, Приключения, 2016) BDRip 720p от k.e.n | D

marya111

0 | 0

4.37 ГБ

В этой теме нет новых непрочитанных сообщений. Стартрек: Бесконечность / Star Trek Beyond [фантастика, боевик, триллер, приключения, 2016] BDRip 720p, Dub [лицензия]

salma3

495 | 104

5.4 ГБ

В этой теме нет новых непрочитанных сообщений. Стартрек: Бесконечность / Star Trek Beyond ( фантастика, боевик, триллер, приключения, 2016) BDRip 720p от HELLYWOOD | iTunes

marya111

0 | 0

5.27 ГБ

В этой теме нет новых непрочитанных сообщений. Стартрек: Бесконечность / Star Trek Beyond (фантастика, боевик, триллер, приключения, 2016) BDRip-AVC | Лицензия

marya111

0 | 0

745.25 МБ

В этой теме нет новых непрочитанных сообщений. Стартрек: Бесконечность / Star Trek Beyond (Фантастика, боевик, приключения, 2016) BDRip HEVC 720р от SuperMin | D

marya111

43 | 12

2.63 ГБ

В этой теме нет новых непрочитанных сообщений. Стартрек: Бесконечность / Star Trek Beyond [Фантастика, боевик, триллер, приключения, 2016] BDRip 1080p, Dub [лицензия]

salma3

533 | 176

10.26 ГБ


Начать новую тему Ответить на тему  [ 1 сообщение ] 




Для Мосгорсуда, Роскомнадзора и рекламодателей:: mosgorsud-torrent[собачка]yandex.ru