Торрент файл
скачать торрент магнет ссылка Добавлен: 06 июл 2014, 00:44
Размер: 42.78 ГБ
Сидеров: 4
Личеров: 6
Статус: (salma3)
Автор

СообщениеДобавлено: 06 июл 2014, 00:44 

Не в сети
Супермодератор
Аватара пользователя
Дата регистрации:
15 фев 2012, 16:44
Возраст: 27
Спасибо: 5538 / 2105
Сообщения: 21246
Звездный путь: Энтерпрайз / Star Trek: Enterprise /

Год выпуска: 2001
Жанр: фантастика, боевик, приключения
Режиссер: Дэвид Ливингстон, Майкл Виджер

В ролях: Скотт Бакула, Джон Биллингсли, Джолин Блэлок, Доминик Китинг, Гэри Грэм, Коннор Триннир, Линда Парк, Рэнди Оглесби, Энтони Монтгомери

Описание: На дворе 22 век. Человечество, долго удерживаемое вулканцами в пределах Солнечной системы, наконец выходит в дальний космос. На исследование отправляется звездолет NX-01 «Энтерпрайз», построенный с использованием новейших технологий и оснащенный первым двигателем со скоростью Варп-5. Под командованием капитана Арчера, храброму экипажу придется исследовать десятки планет, столкнуться с множеством дружественных и враждебных цивилизаций, ввязаться во Временную холодную войну и спасти Землю от уничтожения расой Зинди, обитающей в таинственной Дельфийской зоне. Это история о первых шагах человечества в открытом космосе и рассказ о создании Объединенной Федерации Планет.



Страна: США | Paramount Network Television Productions
Продолжительность: 26 х ~00:44:00
Перевод: Профессиональный (многоголосый, закадровый) [СТС]
Субтитры: английские

Файл
Качество: BDRip 720p
Формат файла: MKV
Видео кодек: H.264
Аудио кодек: AC3
Видео: 1280x720p (16:9), 23.976 fps, AVC MPEG-4 (x264) High@L4.0 ~4415 kbps avg, 0.200 bit/pixel
Аудио#1: Русский 48 kHz, AC3, 6 ch ~ 448 Kbps [многоголосый, закадровый]
Аудио#2: Английский 48 kHz, AC3, 6 ch ~ 448 Kbps [Оригинал]

s01_e01_e02.Разорванный круг / Broken Bow.
s01_e03.Бежать или сражаться / Fight or Flight.
s01_e04.Этот странный новый мир… / Strange New World.
s01_e05.Неожиданность / Unexpected.
s01_e06.Терра Нова / Terra Nova.
s01_e07.Андорианский инцидент / The Andorian Incident.
s01_e08.Взламывая льды / Breaking the Ice.
s01_e09.Цивилизация / Civilization.
s01_e10.Сын Фортуны / Fortunate Son.
s01_e11.Холодный фронт / Cold Front.
s01_e12.Молчаливый враг / Silent Enemy.
s01_e13.Дорогой доктор / Dear Doctor.
s01_e14.Спящие псы / Sleeping Dogs.
s01_e15.Тени Пи’Джем / Shadows of P'Jem.
s01_e16.Шаттл один / Shuttlepod One.
s01_e17.Слияние / Fusion.
s01_e18.Блуждающая планета / Rogue Planet.
s01_e19.Приобретение / Acquisition.
s01_e20.Оазис / Oasis.
s01_e21.Задержанные / Detained.
s01_e22.Vox Sola / Vox Sola.
s01_e23.Падший герой / Fallen Hero.
s01_e24.Пустынный перекрёсток / Desert Crossing.
s01_e25.Два дня и две ночи / Two Days and Two Nights.
s01_e26.Ударная волна, часть 1 / Shockwave, Part I.

Общее
Уникальный идентификатор : 193399581798340101419262916696162488430 (0x917F6792AB3A58C2965A5631AA14D06E)
Полное имя : F:\TREKER\TEMP\star_trek_enterprise_s01_[tfile.ru]\star_trek_enterprise_s01_e01_e02.mkv
Формат : Matroska
Версия формата : Version 2
Размер файла : 3,23 Гбайт
Продолжительность : 1 ч. 26 м.
Общий поток : 5313 Кбит/сек
Название фильма : star_trek_enterprise_s01_e01_e02
Дата кодирования : UTC 2014-07-05 09:49:43
Программа кодирования : mkvmerge v4.0.0 ('The Stars were mine') сборка от Jun 6 2010 16:18:42
Библиотека кодирования : libebml v1.0.0 + libmatroska v1.0.0
Attachment : Yes

Видео
Идентификатор : 1
Формат : AVC
Формат/Информация : Advanced Video Codec
Профиль формата : High@L4.0
Параметр CABAC формата : Да
Параметр ReFrames формата : 9 кадров
Идентификатор кодека : V_MPEG4/ISO/AVC
Продолжительность : 1 ч. 26 м.
Битрейт : 4415 Кбит/сек
Ширина : 1280 пикселей
Высота : 720 пикселей
Соотношение сторон : 16:9
Режим частоты кадров : Постоянный
Частота кадров : 23,976 кадра/сек
Цветовое пространство : YUV
Субдискретизация насыщенности : 4:2:0
Битовая глубина : 8 бит
Тип развёртки : Прогрессивная
Бит/(Пиксели*Кадры) : 0.200
Размер потока : 2,62 Гбайт (81%)
Заголовок : star_trek_enterprise_s01_e01_e02
Библиотека кодирования : x264 core 130 r2273 b3065e6
Настройки программы : cabac=1 / ref=9 / deblock=1:-1:-1 / analyse=0x3:0x133 / me=umh / subme=11 / psy=1 / psy_rd=1.00:0.00 / mixed_ref=1 / me_range=32 / chroma_me=1 / trellis=2 / 8x8dct=1 / cqm=0 / deadzone=21,11 / fast_pskip=0 / chroma_qp_offset=-2 / threads=6 / lookahead_threads=1 / sliced_threads=0 / nr=0 / decimate=1 / interlaced=0 / bluray_compat=0 / constrained_intra=0 / bframes=8 / b_pyramid=2 / b_adapt=2 / b_bias=0 / direct=3 / weightb=1 / open_gop=0 / weightp=2 / keyint=240 / keyint_min=23 / scenecut=40 / intra_refresh=0 / rc_lookahead=60 / rc=2pass / mbtree=1 / bitrate=4415 / ratetol=1.0 / qcomp=0.70 / qpmin=0 / qpmax=69 / qpstep=4 / cplxblur=20.0 / qblur=0.5 / ip_ratio=1.40 / aq=1:1.00
Язык : English
Default : Нет
Forced : Нет

Аудио #1
Идентификатор : 2
Формат : AC-3
Формат/Информация : Audio Coding 3
Расширение режима : CM (complete main)
Параметр Endianness формата : Big
Идентификатор кодека : A_AC3
Продолжительность : 1 ч. 26 м.
Вид битрейта : Постоянный
Битрейт : 448 Кбит/сек
Каналы : 6 каналов
Расположение каналов : Front: L C R, Side: L R, LFE
Частота : 48,0 КГц
Битовая глубина : 16 бит
Метод сжатия : С потерями
Размер потока : 279 Мбайт (8%)
Заголовок : [Профессиональный (многоголосый, закадровый)(CТС)]
Язык : Russian
Default : Нет
Forced : Нет

Аудио #2
Идентификатор : 3
Формат : AC-3
Формат/Информация : Audio Coding 3
Расширение режима : CM (complete main)
Параметр Endianness формата : Big
Идентификатор кодека : A_AC3
Продолжительность : 1 ч. 26 м.
Вид битрейта : Постоянный
Битрейт : 448 Кбит/сек
Каналы : 6 каналов
Расположение каналов : Front: L C R, Side: L R, LFE
Частота : 48,0 КГц
Битовая глубина : 16 бит
Метод сжатия : С потерями
Размер потока : 279 Мбайт (8%)
Заголовок : [Оригинал]
Язык : English
Default : Нет
Forced : Нет

Текст
Идентификатор : 4
Формат : UTF-8
Идентификатор кодека : S_TEXT/UTF8
Идентификатор кодека/Информация : UTF-8 Plain Text
Язык : English
Default : Нет
Forced : Нет

Меню
00:00:00.000 : en:00:00:00.000
00:04:09.082 : en:00:04:09.082
00:20:34.942 : en:00:20:34.942
00:30:53.226 : en:00:30:53.226
00:44:04.016 : en:00:44:04.016
00:52:54.838 : en:00:52:54.838
01:00:25.247 : en:01:00:25.247
01:12:05.988 : en:01:12:05.988
01:25:47.851 : en:01:25:47.851



_________________
Проголосуй за трекер Открытый торрент трекер - RUS-MEDIA.ORG

Не забудьте оставить комментарий!



реклама партнёра


Вернуться к началу
 Профиль Отправить личное сообщение  
 
   Похожие торренты   Автор   Торрент   Размер 
В этой теме нет новых непрочитанных сообщений. Звездный путь: Энтерпрайз / Star Trek: Enterprise / 2 сезон 1-26 серии из 26 [фантастика, боевик, приключения, 2002-2003 ] BDRip 720p, Mvo+Sub [СТС]

salma3

2 | 4

41.38 ГБ

В этой теме нет новых непрочитанных сообщений. Звездный путь: Энтерпрайз / Star Trek: Enterprise / 3 сезон 1-24 серии из 24 [фантастика, боевик, приключения, 2002-2003] BDRip 720p, Mvo+Sub [СТС]

salma3

1 | 5

38.17 ГБ

В этой теме нет новых непрочитанных сообщений. Звездный путь: Энтерпрайз / Star Trek: Enterprise / 1-4 сезоны 1-98 серии из 98 [фантастика, боевик, приключен 2001–2005] DVDRip, Mvo [СТС]

salma3

12 | 13

36.83 ГБ

В этой теме нет новых непрочитанных сообщений. Звёздный путь: Вояджер / Star Trek: Voyager / 1-7 сезоны 1-172 серии из 172 [фантастика, боевик, 1995-2001] DVDRip, Mvo [Z'Ha'Dum]

salma3

9 | 21

106.74 ГБ

В этой теме нет новых непрочитанных сообщений. Звездный путь: Следующее поколение / Star Trek: The Next Generation / 1-7 сезоны 1-178 серии из 178 [фантастика, боевик, приключения, 1987-1994] DVDRip, Mvo [AXN Sci-fi]

salma3

8 | 19

88.84 ГБ

В этой теме нет новых непрочитанных сообщений. Звёздный путь: Глубокий космос 9 / Star Trek: Deep Space Nine / 1-7 сезоны 1-176 серии из 176 [фантастика, боевик, приключения, 1993–1999] DVDRip, Avo+Dvo

salma3

23 | 18

60.91 ГБ

В этой теме нет новых непрочитанных сообщений. Звездный путь: Восстание / Star Trek: Insurrection [фантастика, боевик, триллер, приключения, 1998] BDRip 1080p, 3Mvo+Avo+Sub

salma3

39 | 33

9.02 ГБ


Начать новую тему Ответить на тему  [ 1 сообщение ] 




Для Мосгорсуда, Роскомнадзора и рекламодателей:: mosgorsud-torrent[собачка]yandex.ru