Торрент файл
скачать торрент магнет ссылка Добавлен: 16 июл 2014, 00:03
Размер: 32.26 ГБ
Сидеров: 7
Личеров: 9
Автор

СообщениеДобавлено: 01 июл 2014, 18:22 

Не в сети
2 Звезды
Аватара пользователя
Дата регистрации:
10 окт 2010, 20:23
Возраст: 61
Спасибо: 179 / 0
Сообщения: 323
Откуда: КРАСНОГОРСК
Салем / Salem

Год выпуска: 2014
Выпущено: США, Tribune Studios, Twentieth Century Fox Television
Жанр: Ужасы, Фантастика, триллер, драма
Продолжительность: 00:52:00
Сезон: 1
Серия: 1-13
Количество серий в сезоне: 13
Озвучка:Профессиональная многоголосая закадровая(AlexFilm)Ирина Воронова,
Александр Воронов,
Михаил Суслов,
Сергей Пономарёв,
Владимир Курдов,Перевод: Doctor Joker и MartinaG

Субтитры: НЕТ

Официальный сайт сериала



Режиссер: Ричард Шепард

В ролях: Шэйн Уэст, Джанет Монтгомери, Эжур Дэун, Моргана Шоу, Сет Гейбл, Ксандер Беркли, Эшли Мадекве, Элиз Эберли, Джон Артур, Кристофер Берри


Действие сериала разворачивается в средневековом Салеме, известной мекке всех ведьм. Но если реальная салемская история оказалась фикцией, то сериал прямо-таки силой заставляет поверить в невозможное.

Отчаявшаяся девушка, возлюбленный которой отправился на фронт, решается на страшный шаг — продает свою душу тому самому дьяволу, любимой страшилке всех околохристианских религий. Теперь она сможет отомстить за свои страдания всем пуританам — это, к слову, чуть ли не основное ругательство в сериале.

Снято, конечно, потрясающе. По сравнению с «ведьмовской» частью «Американской истории ужасов» «Салем» выигрывает по всем пунктам — это не гламурное, кокетливое сборище юных леди, это настоящая паутина из страстей, вины, мести и жестокости. Актерская игра на очень высоком уровне, что не удивительно — кастинг проводился явно не по принципу «где бы понабрать красивых и известных мордашек». Средневековье — штука неприятная и грязноватая. Так что и впечатления от просмотра соответствующие — жуть, честно скажу, пробирает.

Что интересно, в сериале, можно сказать, нет чисто положительных персонажей — главную героиню, конечно, жалко, но ведьма из нее получается полноценная. Да и главный герой, сильный и не стесняющийся противоречить властям, тоже обладает своими темными тайнами. Что уж говорить, к примеру, о священнике, прославленном охотнике на ведьм, чья благочестивость отлично сочетается с посещениями борделя и пристрастием к выпивке…

Словом, сериал радует. И галерея персонажей, и антураж, и прочие нюансы проработаны на отлично. Любителям жестоких мистических сериалов должно понравится!


Качество : WEB-DLRip-AVC 1080p
Формат: MPEG-4
Видео кодек: H264
Видео: 7243ит/сек,1920х1080(16.9),в 25.000кадр/сек,AVC(Baseline@L4.0)(1Ref Frames)
Аудио кодек: AAC
Аудио Russian Dolby Digital 5.1:483Кбит/сек,48.0КГц,6каналов,AAC,(Version4)(LC)

Звуковая дорожка сделана путем наложения чистого голоса озвучивателей на центральный канал оригинальной дорожки. Качество идентично звуковой дорожке.



01 Обещание (The Vow)
02 Каменное дитя (The Stone Child)
03 Напрасно (In Vain)
04 Выжившие (Survivors)
05 (Lies)
06 Шиповник и алая роза (The Red Rose and the Briar)
07 Собственная Америка (Our Own Private America)
08 Отправная точка (Departures)
09 Бойтесь, дети!( Children, Be Afraid)
10 Дом боли (The House of Pain)
11 Кошки-мышки (Cat and Mouse)
2 Пепел, Пепел (Ashes, Ashes)
13. Все умрут (All Fall Down)



General
Полное имя : D:\Ф А Н Т А С Т И К А +П Р И К Л Ю Ч Е Н И Я + Ф Э Н Т А З И\Салем\SALEM_2014_S01_RUS[AlexFilm]_DD5.1_x264_Nikolai.Baranov_WEB-DLRip-AVC_(1080p)\Salem_2014_S01E01_RUS[AlexFilm]_DD5.1_x264_Nikolai.Baranov_WEB-DLRip-AVC_(1080p).mp4
Формат : MPEG-4
Профиль формата : Base Media
Идентификатор кодека : isom
Размер файла : 2.82 GiB
Продолжительность : 52mn 18s
Режим общего битрейта : Variable
Общий поток : 7 730 Kbps
Название фильма : Crossbones 1x01 The Devil's Dominion @ AlexFilm
Дата кодирования : UTC 2014-06-29 18:16:45
Дата пометки : UTC 2014-06-29 18:16:45
Программа кодирования : Lavf51.12.1

Video
Идентификатор : 1
Формат : AVC
Формат/Информация : Advanced Video Codec
Профиль формата : Baseline@L4.0
Параметр CABAC формата : No
Параметр ReFrames формата : 1 frame
Параметр GOP формата : M=1, N=12
Идентификатор кодека : avc1
Идентификатор кодека/Информация : Advanced Video Coding
Продолжительность : 52mn 17s
Вид битрейта : Variable
Битрейт : 7 243 Kbps
Максимальный битрейт : 10.5 Mbps
Ширина : 1 920 pixels
Высота : 1 080 pixels
Соотношение сторон : 16:9
Режим частоты кадров : Constant
Частота кадров : 25.000 fps
Частота кадров в оригинале : 24.000 fps
Цветовое пространство : YUV
Субдискретизация насыщенности : 4:2:0
Битовая глубина : 8 bits
Тип развёртки : Progressive
Бит/(Пиксели*Кадры) : 0.140
Размер потока : 2.65 GiB (94%)
Язык : English
Дата кодирования : UTC 2014-06-29 18:16:45
Дата пометки : UTC 2014-06-29 18:16:45

Audio
Идентификатор : 2
Формат : AAC
Формат/Информация : Advanced Audio Codec
Профиль формата : LC
Идентификатор кодека : 40
Продолжительность : 52mn 18s
Вид битрейта : Variable
Битрейт : 483 Kbps
Каналы : 2 channels
Channel(s)_Original : 6 channels
Расположение каналов : Front: L C R, Side: L R, LFE
Частота : 48.0 KHz
Метод сжатия : Lossy
Размер потока : 181 MiB (6%)
Язык : Russian
Дата кодирования : UTC 2014-06-29 18:16:45
Дата пометки : UTC 2014-06-29 18:16:45










1. Открыть торрент
2. Снять галки с тех файлов торрента, которые мы не хотим закачивать. Оставляем только на нужных нам файлах (файле).
3. Нажать О.К.

В клиенте utorrent

Инструкция

1) Открыть торрент


2) Снять галки с тех файлов торрента, которые мы не хотим закачивать:

* либо вручную, снимая с каждого файла галку( скрин №1)
* либо, нажав кнопку "Снять метки (Select None)", сняв сразу со всех файлов(скрин №2)
№1

№2

Оставляем только на нужных нам файлах (файле).

3)Нажать О.К






Внимание!! 15.07. 2014. РАЗДАЧА ОБНОВЛЕНА..ФИНАЛ СЕЗОНА.ОБНОВИТЕ ТОРЕНТ ФАЙЛ.ПРИЯТНОГО ПРОСМОТРА .


Релиз от: Nikolai.Baranov







_________________

Легко быть оптимистом, когда судьба не валит с ног тяжелыми ударами, а лишь иногда легонько шлепает по заднице.



реклама партнёра


Вернуться к началу
 Профиль Отправить личное сообщение  
 
   Похожие торренты   Автор   Торрент   Размер 
В этой теме нет новых непрочитанных сообщений. Салем / Salem [01х01-12 из 13] (Ричард Шепард) [2014, Фантастика, триллер, драма, WEB-DLRip-AVC | AlexFilm]

Nickolas3435

21 | 16

10.54 ГБ

В этой теме нет новых непрочитанных сообщений. Салем / Salem [S01] (Ричард Шепард) [2014, фантастика, триллер, драма, WEB-DLRip | NewStudio]

Nickolas3435

276 | 169

7.13 ГБ

В этой теме нет новых непрочитанных сообщений. Салем / Salem [S01] (Ричард Шепард) [2014, фантастика, триллер, драма, WEB-DL 1080p | BaibaKo]

Nickolas3435

15 | 19

23.13 ГБ

В этой теме нет новых непрочитанных сообщений. Салем / Salem [S01] (Ричард Шепард) [2014, фантастика, триллер, драма, WEB-DLRip | BaibaKo]

Nickolas3435

88 | 48

8.43 ГБ

В этой теме нет новых непрочитанных сообщений. Салем / Salem [01х01-09 из 13] (Ричард Шепард) [2014, фантастика, триллер, драма, WEB-DLRip | NewStudio]

Nickolas3435

57 | 77

4.98 ГБ

В этой теме нет новых непрочитанных сообщений. Салем / Salem / 1 сезон 1-11 серии из 13 [фантастика, триллер, драма, 2014] WEB-DLRip, Mvo [BaibaKo]

salma3

46 | 46

6.99 ГБ

В этой теме нет новых непрочитанных сообщений. Салем / Salem / 3 сезон 1-05 серии из 13 [фантастика, триллер, драма, 2016] WEB-DL 720p, Mvo [LostFilm]

salma3

16 | 57

8.21 ГБ


Начать новую тему Ответить на тему  [ 1 сообщение ] 




Для Мосгорсуда, Роскомнадзора и рекламодателей:: mosgorsud-torrent[собачка]yandex.ru