Торрент файл
скачать торрент магнет ссылка Добавлен: 25 июн 2014, 08:02
Размер: 8.74 ГБ
Сидеров: 0
Личеров: 5
Автор

СообщениеДобавлено: 25 июн 2014, 08:02 

Не в сети
Аватара пользователя
Дата регистрации:
26 ноя 2013, 12:32
Возраст: 56
Спасибо: 52 / 7
Сообщения: 66
Откуда: СССР
Год выпуска: 2012
Выпущено: Россия ,Украина ,Шпиль, Film.ua
Жанр: Медицинская мелодрама
Перевод: Не требуется
Режиссер: Андрей Черных
В ролях: Никита Салопин, Даниил Спиваковский, Дарья Волга, Леся Самаева, Фёдор Черных, Юрий Беляев, Олесь Кацион, Андрей Саминин, Анастасия Сердюк, Влад Чумак, Владимир Кузнецов (IV), Олег Иваница, Константин Косинский, Галина Корнеева, Маргарита Карасёва, Юлия Домашец, Ольга Князева (II), Мария Аниканова, Ирма Витовская, Иван Оганесян, Яна Соболевская, Нина Касторф, Алексей Зорин, Виктория Корсун, Мила Сивацкая, Тамара Морозова, Игорь Яцко, Мирослав Белоногий, Роман Агеев, Олег Примогенов, Марина Кондратьева (II), Антонина Макарчук, Анна Расстальная, Ольга Лукьяненко, Римма Зюбина, Виктория Токманенко, Ада Роговцева, Валентина Ищенко, Инна Мирошниченко
О фильме: Каждый день кто-то умирает, и каждый раз есть выбор — станет ли смерть одного человека, надеждой на жизнь для другого… Для врачей клиники трансплантологии каждый день без преувеличений становится битвой за чью-то жизнь, а их личные волнения могут быть смертельным приговором для пациента, их отточенные движения становятся решающими и здесь нет места личным эмоциям. Бюрократия и постоянные подозрения правоохранительных органов, личные трагедии и волнения, сомнения и страхи должны остаться за дверью операционной, чтобы врачи могли спасти еще одну жизнь. Каждая серия — это отдельный рассказ о событиях в жизни медперсонала клиники трансплатналогии Грохольского. Сериал поднимает очень важную социально-медицинскую тему, но в то же время, не перегружен профессиональной информацией и рассказывает в первую очередь о непростых человеческих судьбах.
Сэмпл
Качество: WEBRip
Видео: 720x400 (1.80:1), 25 fps, XviD MPEG-4 ~1770 kbps
Аудио: 48 kHz, AC3 Dolby Digital, 2/0 (L,R) ch, ~192 kbps
Продолжительность: 12х~00:53:00
Общее
Полное имя : D:\List_ozhidanija_01-12iz12_2012_XviD_WEBRip\List_ozhidanija_01_iz_12_2012_WEBRip.avi
Формат : AVI
Формат/Информация : Audio Video Interleave
Размер файла : 746 Мбайт
Продолжительность : 52 м.
Общий поток : 1971 Кбит/сек
Программа кодирования : Lavf52.94.0
Библиотека кодирования : VirtualDub build 35491/release

Видео
Идентификатор : 0
Формат : MPEG-4 Visual
Профиль формата : Advanced Simple@L5
Параметр BVOP формата : 2
Параметр QPel формата : Нет
Параметр GMC формата : Без точки перехода
Параметр матрицы формата : Default (H.263)
Режим смешивания : Сжатый битовый поток
Идентификатор кодека : XVID
Идентификатор кодека/Подсказка : XviD
Продолжительность : 52 м.
Битрейт : 1770 Кбит/сек
Ширина : 720 пикселей
Высота : 400 пикселей
Соотношение сторон : 16:9
Частота кадров : 25,000 кадров/сек
Цветовое пространство : YUV
Субдискретизация насыщенности : 4:2:0
Битовая глубина : 8 бит
Тип развёртки : Прогрессивная
Метод сжатия : С потерями
Бит/(Пиксели*Кадры) : 0.246
Размер потока : 669 Мбайт (90%)
Библиотека кодирования : XviD 65

Аудио
Идентификатор : 1
Формат : AC-3
Формат/Информация : Audio Coding 3
Расширение режима : CM (complete main)
Параметр Endianness формата : Big
Идентификатор кодека : 2000
Продолжительность : 52 м.
Вид битрейта : Постоянный
Битрейт : 192 Кбит/сек
Каналы : 2 канала
Расположение каналов : Front: L R
Частота : 48,0 КГц
Битовая глубина : 16 бит
Метод сжатия : С потерями
Размер потока : 72,6 Мбайт (10%)
Выравнивание : Соединение по промежуткам
Продолжительность промежутка : 40 мс. (1,00 видеокадр)
Время предзагрузки промежутка : 512 мс.





реклама партнёра


Вернуться к началу
 Профиль Отправить личное сообщение  
 
   Похожие торренты   Автор   Торрент   Размер 
В этой теме нет новых непрочитанных сообщений. Секстет Золотинского - Лист [2006, Rock , MP3]

PriZraK

0 | 1

28.49 МБ

В этой теме нет новых непрочитанных сообщений. Лист моих желаний / La liste de mes envies (Дидье Ле Пешор) [Драма, комедия, 2014] HDRip, Mvo

Dracon

1099 | 30

1.37 ГБ

В этой теме нет новых непрочитанных сообщений. Лист моих желаний / La liste de mes envies (Дидье Ле Пешор) [Драма, комедия, 2014] BDRip 720p, Mvo

Dracon

252 | 8

4.5 ГБ

В этой теме нет новых непрочитанных сообщений. Вот это любовь! [Мелодрама, комедия, 2013] WEBRip

Ανδρέας

4235 | 570

1.36 ГБ

В этой теме нет новых непрочитанных сообщений. Василиса [Исторический, мелодрама, 2014] WebRip

Dracon

83 | 3

1.37 ГБ

В этой теме нет новых непрочитанных сообщений. Прощай, любимая! [8 из 8] [Детектив, мелодрама,2014] WEBRip

iopuk60

0 | 2

4.34 ГБ

В этой теме нет новых непрочитанных сообщений. Скорпион на ладони [Мелодрама, детектив, 2013] WEBRip

Dracon

162 | 9

1.37 ГБ


Начать новую тему Ответить на тему  [ 1 сообщение ] 




Для Мосгорсуда, Роскомнадзора и рекламодателей:: mosgorsud-torrent[собачка]yandex.ru