Торрент файл
скачать торрент магнет ссылка Добавлен: 21 июн 2014, 07:38
Размер: 13.02 ГБ
Сидеров: 0
Личеров: 2
Автор

СообщениеДобавлено: 21 июн 2014, 07:42 

Не в сети
Аватара пользователя
Дата регистрации:
26 ноя 2013, 12:32
Возраст: 56
Спасибо: 52 / 7
Сообщения: 66
Откуда: СССР
Год выпуска: 2012
Выпущено: Россия ,DIXI-TV
Жанр: Мелодрама,драма
Перевод: Не требуется
Режиссер: Сергей Лесогоров, Мичислав Юзовский
В ролях: Елена Коровчук, Алексей Фаддеев, Игорь Ливанов, Алла Подчуфарова, Игорь Стам, Максим Глотов, Максим Щёголев, Валерия Богук, Анна Кашникова, Александр Сергеев (IV), Всеволод Макаров, Антон Ушаков, Юрий Грубник, Виктория Тарасова, Ирина Ермилова, Владимир Чуприков, Юлия Гусак, Виталий Ходин, Ксения Хаирова, Анна Барсукова, Степан Рожнов, Евгений Матвеев (II), Олег Дурыгин, Елена Коллегова, Алексей Шаранин, Андрей Васильев (II), Наталья Дворецкая, Леся Кудряшова, Дария Тюрина, Александр Давыдов (II), Ирина Фролова, Никита Сологалов, Александр Воробьёв (II), Юлия Дегтяренко, Ирина Смагина
О фильме: Они спасают чужие жизни! Но что творится в их душах, что происходит в их семьях, как строятся непростые отношения с коллегами, друзьями? Действие сериала разворачивается в приемном покое больницы, операционных, а также везде, куда спешат бригады «скорой помощи». Но самое главное – это мир врачей, их жизнь вне работы, человеческие драмы, проблемы, ошибки, сожаления и чаяния. Беспринципные карьеристы и самоотверженные фанатики – хирурги, врачи скорой, фельдшеры – судьба каждого неповторима и уникальна и пересекается в одной точке – в больнице, в которой они работают.
Сэмпл
Качество: SATRip
Видео: 720x384 (1.88:1), 25 fps, XviD MPEG-4 ~1333 kbps avg, 0.18 bit/pixel
Аудио: 48 kHz, AC3 Dolby Digital, 2/0 (L,R) ch, ~192 kbps
Продолжительность: 24 x ~ 00:50:00
Общее
Полное имя : D:\Strana_03_01-24iz24_2012_XviD_SATRip\Strana_03_01_iz_24_2012_SATRip.avi
Формат : AVI
Формат/Информация : Audio Video Interleave
Размер файла : 556 Мбайт
Продолжительность : 50 м.
Общий поток : 1535 Кбит/сек
Программа кодирования : VirtualDubMod 1.5.10.2 (build 2540/release)
Библиотека кодирования : VirtualDub build 35491/release

Видео
Идентификатор : 0
Формат : MPEG-4 Visual
Профиль формата : Advanced Simple@L5
Параметр BVOP формата : 2
Параметр QPel формата : Нет
Параметр GMC формата : Без точки перехода
Параметр матрицы формата : Default (H.263)
Режим смешивания : Сжатый битовый поток
Идентификатор кодека : XVID
Идентификатор кодека/Подсказка : XviD
Продолжительность : 50 м.
Битрейт : 1333 Кбит/сек
Ширина : 720 пикселей
Высота : 384 пикселя
Соотношение сторон : 1,85:1
Частота кадров : 25,000 кадров/сек
Цветовое пространство : YUV
Субдискретизация насыщенности : 4:2:0
Битовая глубина : 8 бит
Тип развёртки : Прогрессивная
Метод сжатия : С потерями
Бит/(Пиксели*Кадры) : 0.193
Размер потока : 482 Мбайт (87%)
Библиотека кодирования : XviD 65

Аудио
Идентификатор : 1
Формат : AC-3
Формат/Информация : Audio Coding 3
Расширение режима : CM (complete main)
Параметр Endianness формата : Big
Идентификатор кодека : 2000
Продолжительность : 50 м.
Вид битрейта : Постоянный
Битрейт : 192 Кбит/сек
Каналы : 2 канала
Расположение каналов : Front: L R
Частота : 48,0 КГц
Битовая глубина : 16 бит
Метод сжатия : С потерями
Размер потока : 69,5 Мбайт (13%)
Выравнивание : Соединение по промежуткам
Продолжительность промежутка : 40 мс. (1,00 видеокадр)
Время предзагрузки промежутка : 512 мс.




реклама партнёра


Вернуться к началу
 Профиль Отправить личное сообщение  
 
   Похожие торренты   Автор   Торрент   Размер 
В этой теме нет новых непрочитанных сообщений. Страна 03 [01-24 из 24] (Сергей Лесогоров, Мичислав Юзовский) [Мелодрама, 2012] HDTVRip

Dracon

97 | 60

15.05 ГБ

В этой теме нет новых непрочитанных сообщений. Следующая остановка – Страна чудес / Next Stop Wonderland [драма, мелодрама, комедия, 1998] DVDRip, Mvo

salma3

89 | 5

689.52 МБ

В этой теме нет новых непрочитанных сообщений. ПутЁвая страна [01-20 из 20] [Комедия, 2013] SATRip

Ανδρέας

27 | 6

6.85 ГБ

В этой теме нет новых непрочитанных сообщений. Страна любви / The Republic of Love [мелодрама, комедия, 2003] DVDRip, Mvo

salma3

30 | 4

1.37 ГБ

В этой теме нет новых непрочитанных сообщений. Луговая страна / Meadowland [драма, 2015] WEB-DL 720p, [iTunes]

marya111

261 | 14

3.22 ГБ

В этой теме нет новых непрочитанных сообщений. Раненая страна / Wounded Land [драма, 2015] WEBRip, Dvo

salma3

0 | 0

1.36 ГБ

В этой теме нет новых непрочитанных сообщений. Страна чудес / Eventyrland [криминальная драма, 2013] HDRip, Avo

salma3

43 | 5

1.46 ГБ


Начать новую тему Ответить на тему  [ 1 сообщение ] 




Для Мосгорсуда, Роскомнадзора и рекламодателей:: mosgorsud-torrent[собачка]yandex.ru