Торрент файл
скачать торрент магнет ссылка Добавлен: 17 июн 2014, 16:37
Размер: 21.62 ГБ
Сидеров: 1
Личеров: 2
Статус: (salma3)
Автор

СообщениеДобавлено: 17 июн 2014, 16:37 

Не в сети
Релизёр
Дата регистрации:
14 июл 2013, 00:47
Возраст: 19
Спасибо: 10 / 1
Сообщения: 21
Информация о фильме
Название: Измена / Предательство
Оригинальное название: Betrayal
Год выхода: 2013
Жанр: Драма
Режиссер: Стивен Крегг
В ролях: Ханна Уэр, Генри Томас, Венди Мониз, Браден Лемастерс, Элизабет МакЛафлин, Стюарт Таунсенд

«Они не понимают, что они начали»

О фильме:
В центре сюжета находится молодая и замужняя женщина-фотограф, которая крутит роман с женатым адвокатом из властной и богатой семьи Маккутхенов. История начинается с того, что он защищает подозреваемого в убийстве в деле, над которым работает её муж, и эти события оборачиваются серией предательств и обмана для обеих сторон.



Файл
Качество: WEB-DLRip[1080p]
Видео: AVC at 5017 Кбит/сек  : 1920 x 1080 (1.778) at 23.976 fps
Аудио 1: AC-3 at 192 Кбит/сек: 2 канала, 48,0 КГц [rus]
Аудио 2: AC-3 at 384 Кбит/сек: 6 каналов, 48,0 КГц [eng]
Продолжительность: 13х ~00:43:00
Перевод: Профессиональный (многоголосный) Fox Life
Доступно благодаря группе:

17.06.2014. Добавлена 13 серии. ФИНАЛ СЕЗОНА

Общее
Уникальный идентификатор                 : 187029861898146867011700091476579092051 (0x8CB4A42290B94BF99F21FB2D26F28653)
Полное имя                               : D:раздачаBetrayal S01 WEB-DL 1080pBetrayal.s01e13.WEBDL.1080p.mkv
Формат                                   : Matroska
Версия формата                           : Version 2
Размер файла                             : 1,66 Гбайт
Продолжительность                        : 43 м.
Общий поток                              : 5514 Кбит/сек
Дата кодирования                         : UTC 2014-06-16 20:20:58
Программа кодирования                    : mkvmerge v2.9.9 ('Tutu') built on Nov 25 2009 21:13:32
Библиотека кодирования                   : libebml v0.7.9 + libmatroska v0.8.1

Видео
Идентификатор                            : 1
Формат                                   : AVC
Формат/Информация                        : Advanced Video Codec
Профиль формата                          : High@L4.0
Параметр CABAC формата                   : Да
Параметр ReFrames формата                : 4 кадра
Идентификатор кодека                     : V_MPEG4/ISO/AVC
Продолжительность                        : 43 м.
Битрейт                                  : 4828 Кбит/сек
Ширина                                   : 1920 пикселей
Высота                                   : 1080 пикселей
Соотношение сторон                       : 16:9
Режим частоты кадров                     : Постоянный
Частота кадров                           : 23,976 кадра/сек
Цветовое пространство                    : YUV
Субдискретизация насыщенности            : 4:2:0
Битовая глубина                          : 8 бит
Тип развёртки                            : Прогрессивная
Бит/(Пиксели*Кадры)                      : 0.097
Размер потока                            : 1,45 Гбайт (88%)
Язык                                     : English
Default                                  : Нет
Forced                                   : Нет
Основные цвета                           : BT.709
Характеристики трансфера                 : BT.709
Коэффициенты матрицы                     : BT.709

Аудио #1
Идентификатор                            : 2
Формат                                   : AC-3
Формат/Информация                        : Audio Coding 3
Расширение режима                        : CM (complete main)
Параметр Endianness формата              : Big
Идентификатор кодека                     : A_AC3
Продолжительность                        : 43 м.
Вид битрейта                             : Постоянный
Битрейт                                  : 192 Кбит/сек
Каналы                                   : 2 канала
Расположение каналов                     : Front: L R
Частота                                  : 48,0 КГц
Битовая глубина                          : 16 бит
Метод сжатия                             : С потерями
Размер потока                            : 59,1 Мбайт (3%)
Язык                                     : Russian
Default                                  : Да
Forced                                   : Да

Аудио #2
Идентификатор                            : 3
Формат                                   : AC-3
Формат/Информация                        : Audio Coding 3
Расширение режима                        : CM (complete main)
Параметр Endianness формата              : Big
Идентификатор кодека                     : A_AC3
Продолжительность                        : 43 м.
Вид битрейта                             : Постоянный
Битрейт                                  : 384 Кбит/сек
Каналы                                   : 6 каналов
Расположение каналов                     : Front: L C R, Side: L R, LFE
Частота                                  : 48,0 КГц
Битовая глубина                          : 16 бит
Метод сжатия                             : С потерями
Размер потока                            : 118 Мбайт (7%)
Язык                                     : English
Default                                  : Нет
Forced                                   : Нет













реклама партнёра


Вернуться к началу
 Профиль Отправить личное сообщение  
 
   Похожие торренты   Автор   Торрент   Размер 
В этой теме нет новых непрочитанных сообщений. Измена / Предательство / Betrayal / 1 сезон 1-13 серии из 13 [Драма, 2013] WEB-DLRip, Mvo [Fox Life]

salma3

133 | 36

6.34 ГБ

В этой теме нет новых непрочитанных сообщений. Измена / Betrayal [S01] [драма, детектив, триллер, 2013] WEB-DL 720p, Mvo [Fox Life]

salma3

131 | 81

17.99 ГБ

В этой теме нет новых непрочитанных сообщений. Предательство голубки / Betrayal of the Dove [триллер, криминал, 1993] DVDRip, Mvo

salma3

7 | 2

1.47 ГБ

В этой теме нет новых непрочитанных сообщений. Предательство за предательством / Acts of Betrayal [Боевик, триллер, 1997] DVDRip, Avo [Гаврилов]

salma3

5 | 3

748.74 МБ

В этой теме нет новых непрочитанных сообщений. Тайные cвязи / Covert Affairs / 4 сезон 1-16 серии из 16 [боевик, триллер, криминал, детектив, 2013] WEB-DLRip, Mvo [Fox Life]

salma3

7 | 3

7.8 ГБ

В этой теме нет новых непрочитанных сообщений. Тайные связи / Covert Affairs / 5 сезон 1-16 серии из 16 [боевик, триллер, драма, 2014] WEB-DLRip, Mvo [Fox Life]

salma3

8 | 9

7.8 ГБ

В этой теме нет новых непрочитанных сообщений. Скандал / Scandal / 3 сезон 1-3 серии из 22 [драма, 2013] WEBDLRip, Mvo [Fox Life]

salma3

5 | 3

1.46 ГБ


Начать новую тему Ответить на тему  [ 1 сообщение ] 




Для Мосгорсуда, Роскомнадзора и рекламодателей:: mosgorsud-torrent[собачка]yandex.ru