Торрент файл
скачать торрент магнет ссылка Добавлен: 16 июн 2014, 07:16
Размер: 8.68 ГБ
Сидеров: 0
Личеров: 2
Автор

СообщениеДобавлено: 16 июн 2014, 07:29 

Не в сети
Аватара пользователя
Дата регистрации:
26 ноя 2013, 12:32
Возраст: 56
Спасибо: 52 / 7
Сообщения: 66
Откуда: СССР
Год выпуска: 2013
Выпущено: Россия ,компания "Мостелефильм" по заказу "Версии"
Жанр: Детектив, криминал
Продолжительность:16 х ~ 00:45:00
Перевод: Не требуется
Режисёр: Сергей Лялин
В ролях: Леонид Каневский, Дмитрий Арбенин, Ксения Березина, Ирина Темичева, Владимир Симонов, Александр Яцко, Юрий Беляев, Юрий Белинский, Владислав Резник, Фархад Махмудов, Андрей Тартаков, Ева Авеева, Юрий Осипов, Вячеслав Баранов, Евгений Атарик, Леонид Тимцуник, Геннадий Егоров (II), Ксения Баринова, Андрей Денисов, Мария Жиганова, Олег Спиренков, Руслан Ягудин, Полина Уварова, Надежда Азоркина, Павел Новиков, Константин Желдин, Сергей Жарков, Алексей Аптовцев, Егор Баринов, Алексей Овсянников, Надежда Нечаева
О фильме:Легенда сыска, полковник Семин (Леонид Каневский) возвращается на НТВ! Но если раньше он охотился на бандитов, то на этот раз мишенью станет он сам... Созданный Семиным отдел прекрасно работает, у него отличная команда, высокие результаты. Лишь одно дело не дает ему покоя. Вот уже много лет он пытается арестовать криминального авторитета по кличке Купец. Основным бизнесом Купца является продажа наркотиков. Операции Семина проваливаются одна за другой, и Купцу каждый раз удается скрыться. Вместе со своим приемным сыном Антоном Семин решается на новую масштабную операцию по захвату Купца. Он еще не подозревает, каким серьезным испытанием станет это дело...
Сэмпл
Качество: SATRip
Формат: AVI
Видео кодек: XviD
Аудио кодек: AC3
Видео: 720x416 (1.80:1), 25 fps, XviD MPEG-4 ~1553 kbps avg, 0.26 bit/pixel
Аудио: 48 kHz, AC3 Dolby Digital, 2/0 (L,R) ch, ~192 kbps
Общее
Полное имя : D:\Sjomin_Vozmezdie_01-16iz16_2013_XviD_SATRip\Sjomin_Vozmezdie_01_iz_16_2013_SATRip.avi
Формат : AVI
Формат/Информация : Audio Video Interleave
Размер файла : 555 Мбайт
Продолжительность : 44 м.
Общий поток : 1755 Кбит/сек
Программа кодирования : VirtualDubMod 1.5.10.3 | http://www.virtualdub-fr.org || (build 2550/release)
Библиотека кодирования : VirtualDub build 35491/release

Видео
Идентификатор : 0
Формат : MPEG-4 Visual
Профиль формата : Advanced Simple@L5
Параметр BVOP формата : 2
Параметр QPel формата : Нет
Параметр GMC формата : Без точки перехода
Параметр матрицы формата : Default (H.263)
Режим смешивания : Сжатый битовый поток
Идентификатор кодека : XVID
Идентификатор кодека/Подсказка : XviD
Продолжительность : 44 м.
Битрейт : 1553 Кбит/сек
Ширина : 720 пикселей
Высота : 416 пикселей
Соотношение сторон : 1,731
Частота кадров : 25,000 кадров/сек
Цветовое пространство : YUV
Субдискретизация насыщенности : 4:2:0
Битовая глубина : 8 бит
Тип развёртки : Прогрессивная
Метод сжатия : С потерями
Бит/(Пиксели*Кадры) : 0.207
Размер потока : 491 Мбайт (89%)
Библиотека кодирования : XviD 65

Аудио
Идентификатор : 1
Формат : AC-3
Формат/Информация : Audio Coding 3
Расширение режима : CM (complete main)
Параметр Endianness формата : Big
Идентификатор кодека : 2000
Продолжительность : 44 м.
Вид битрейта : Постоянный
Битрейт : 192 Кбит/сек
Каналы : 2 канала
Расположение каналов : Front: L R
Частота : 48,0 КГц
Битовая глубина : 16 бит
Метод сжатия : С потерями
Размер потока : 60,7 Мбайт (11%)
Выравнивание : Соединение по промежуткам
Продолжительность промежутка : 40 мс. (1,00 видеокадр)
Время предзагрузки промежутка : 512 мс.




реклама партнёра


Вернуться к началу
 Профиль Отправить личное сообщение  
 
   Похожие торренты   Автор   Торрент   Размер 
В этой теме нет новых непрочитанных сообщений. Джокер: Возмездие (Сергей Арутюнян) [Детектив, 2015] SATRip

Dracon

13 | 3

1.37 ГБ

В этой теме нет новых непрочитанных сообщений. Белая стрела. Возмездие [01-12 из 12] (Алексей Шикин, Александр Строев) [Детектив, 2015] SATRip

Dracon

466 | 95

7.62 ГБ

В этой теме нет новых непрочитанных сообщений. Возмездие / Месть / Revenge / 3 сезон 1-22 серии из 22 [триллер, драма, мелодрама, детектив, 2013-2014] WEB-DL 720p, Dvo [NewStudio]

salma3

50 | 28

31.74 ГБ

В этой теме нет новых непрочитанных сообщений. Шеф-2 [32 из 32] [Детектив, криминал, 2013] SATRip

iopuk60

0 | 2

17.36 ГБ

В этой теме нет новых непрочитанных сообщений. Дело врачей [101-130] [Криминал, детектив, 2013] SATRip

Dracon

0 | 4

14.61 ГБ

В этой теме нет новых непрочитанных сообщений. Литейный 4 [08х01-30 из 30] [Детектив, криминал, 2013] SATRip

Dracon

51 | 26

18 ГБ

В этой теме нет новых непрочитанных сообщений. Гончие-6 [1-8 серия из 8] [детектив, криминал, 2013] SATRip

Dracon

0 | 3

4.03 ГБ


Начать новую тему Ответить на тему  [ 1 сообщение ] 




Для Мосгорсуда, Роскомнадзора и рекламодателей:: mosgorsud-torrent[собачка]yandex.ru