Торрент файл
скачать торрент магнет ссылка Добавлен: 11 июн 2014, 22:50
Размер: 5.38 ГБ
Сидеров: 472
Личеров: 55
Автор

СообщениеДобавлено: 11 июн 2014, 22:50 

Не в сети
Супермодератор
Аватара пользователя
Дата регистрации:
06 июн 2014, 07:51
Спасибо: 576 / 0
Сообщения: 2002
Год выпуска: 2014
Страна: Россия / Студия ТГ ФИЛЬМ, РЕН ТВ
Жанр: фэнтези
Продолжительность: ~ 00:48:00 - серия
Режиссер: Александр Мохов

В ролях: Павел Прилучный, Игорь Жижикин, Александра Флоринская, Елена Ташаева, Александр Мохов, Илья Исаев, Юлия Такшина, Михаил Горевой, Михаил Полицеймако, Сергей Бадюк...

Описание: Ведьмы, оборотни… Наши предки преследовали их и беспощадно уничтожали. Но потомки этих исчезнувших цивилизаций и сейчас обитают в магическом Тайном городе, который много тысяч лет существует на территории Москвы и сокрыт от глаз обычных людей защитными чарами. Но некоторым все же удастся в него заглянуть, и даже — освоиться в Тайном Городе.



Качество: DVDRip / 2 x DVD9 R5 - лицензионные диски от "Lizard Cinema Trade"
Формат: AVI
Перевод: Не требуется
Cубтитры: нет
Оригинальная аудиодорожка: русский
Видео: 720x400 (16:9), 25.000 fps, XviD ~ 1800 kbps avg, 0.250 bit/pixel
Аудио: 48 kHz, Dolby AC3, 2 ch, 192 kbps, русский

Общее
Полное имя : Taynyi.gorod.2014.O.DVDRip_[New-Team]_by_avproh1.avi
Формат : AVI
Формат/Информация : Audio Video Interleave
Размер файла : 693 Мбайт
Продолжительность : 48 м.
Общий поток : 2002 Кбит/сек
Программа кодирования : VirtualDubModRus 1.5.10.2 (build 2542/release)
Библиотека кодирования : VirtualDubMod build 2542/release

Видео
Идентификатор : 0
Формат : MPEG-4 Visual
Профиль формата : Advanced Simple@L5
Параметр BVOP формата : 1
Параметр QPel формата : Нет
Параметр GMC формата : Без точки перехода
Параметр матрицы формата : Выборочная
Идентификатор кодека : XVID
Идентификатор кодека/Подсказка : XviD
Продолжительность : 48 м.
Битрейт : 1800 Кбит/сек
Ширина : 720 пикселей
Высота : 400 пикселей
Соотношение сторон : 16:9
Частота кадров : 25,000 кадров/сек
Цветовое пространство : YUV
Субдискретизация насыщенности : 4:2:0
Битовая глубина : 8 бит
Тип развёртки : Прогрессивная
Метод сжатия : С потерями
Бит/(Пиксели*Кадры) : 0.250
Размер потока : 623 Мбайт (90%)
Библиотека кодирования : XviD 73

Аудио
Идентификатор : 1
Формат : AC-3
Формат/Информация : Audio Coding 3
Расширение режима : CM (complete main)
Параметр Endianness формата : Big
Идентификатор кодека : 2000
Продолжительность : 48 м.
Вид битрейта : Постоянный
Битрейт : 192 Кбит/сек
Каналы : 2 канала
Расположение каналов : Front: L R
Частота : 48,0 КГц
Битовая глубина : 16 бит
Метод сжатия : С потерями
Размер потока : 66,5 Мбайт (10%)
Выравнивание : Разделение по промежуткам
Продолжительность промежутка : 40 мс. (1,00 видеокадр)
Время предзагрузки промежутка : 500 мс.





реклама партнёра


Вернуться к началу
 Профиль Отправить личное сообщение  
 
   Похожие торренты   Автор   Торрент   Размер 
В этой теме нет новых непрочитанных сообщений. Тайный город (Сезон 1-2, Серия 1-16 из 16) (Александр Мохов) [2014, Фэнтези,ужасы, фантастика, драма, вампиры, экранизация, DVBRip-AVC]

Враг Нароода

65 | 24

17.87 ГБ

В этой теме нет новых непрочитанных сообщений. Тайный город [8 из 8] [Фэнтези, комедия, 2014] DVDRip

iopuk60

0 | 2

4.34 ГБ

В этой теме нет новых непрочитанных сообщений. Тайный город [01-08] [Фэнтези, 2014] SATRip

Dracon

828 | 68

4.22 ГБ

В этой теме нет новых непрочитанных сообщений. Тайный город 2 [серии 1-8 из 8] [Фэнтези, 2014] SATRip

Dracon

7 | 2

4.65 ГБ

В этой теме нет новых непрочитанных сообщений. Острова [2 из 2] (Александр Мохов, Антон Гойда) [Мелодрама, 2015] SATRip

Dracon

43 | 6

1.27 ГБ

В этой теме нет новых непрочитанных сообщений. Последний янычар [серия 115 из 115] (Александр Мохов, Антон Гойда) [Мелодрама, 2015] SATRip

Dracon

0 | 1

512.13 МБ

В этой теме нет новых непрочитанных сообщений. Последний янычар [S01] (Александр Мохов, Антон Гойда) [Криминальная драма, 2015] HDTVRip

Dracon

19 | 79

61.79 ГБ


Начать новую тему Ответить на тему  [ 1 сообщение ] 




Для Мосгорсуда, Роскомнадзора и рекламодателей:: mosgorsud-torrent[собачка]yandex.ru