Торрент файл
скачать торрент магнет ссылка Добавлен: 11 июн 2014, 17:39
Размер: 4.34 ГБ
Сидеров: 9
Личеров: 3
Статус: (salma3)
Автор

СообщениеДобавлено: 11 июн 2014, 17:41 

Не в сети
Аватара пользователя
Дата регистрации:
26 ноя 2013, 12:32
Возраст: 56
Спасибо: 52 / 7
Сообщения: 66
Откуда: СССР
Год выпуска: 2012
Выпущено: Россия ,Расфокусфильм
Жанр: Боевик, криминал, детектив
Перевод: Не требуется
Режисёр: Владимир Янковский, Андрей Комаров (II)
В ролях: Алексей Макаров, Олег Фомин, Эдуард Мацаберидзе, Павел Делонг, Олеся Судзиловская, Валерий Кащеев, Виктор Рыбчинский, Андрей Лукьянов, Константин Котляров, Александр Ткаченок, Анна Полупанова, Таисия Грач, Екатерина Шуляк, Руслан Ещенко, Виктор Молчан, Татьяна Жданова
О фильме: Действие фильма происходит в небольшом сибирском городке Ясногорске. Там объявляется киллер, бывший спецназовец, воевавший в Афганистане. Чтобы найти его, из Москвы приезжают сыщики специального отдела под кодовым названием СССР. Вначале местные правоохранительные органы помогают расследованию. Но потом выясняется, что весь город под контролем мафии.
Сэмпл
Качество: WEBRip
Видео: 720x400 (1.80:1), 25 fps, XviD MPEG-4 ~1561 kbps avg, 0.26 bit/pixel
Аудио: 48 kHz, AC3 Dolby Digital, 2/0 (L,R) ch, ~192 kbps
Продолжительность: 8 x ~ 00:43:00
Общее
Полное имя : D:\Otdel_S.S.S.R._S1_1-8iz8_2012_XviD_WEBRip\Otdel_S.S.S.R._S1_1_iz_8_2012_WEBRip.avi
Формат : AVI
Формат/Информация : Audio Video Interleave
Размер файла : 555 Мбайт
Продолжительность : 44 м.
Общий поток : 1762 Кбит/сек
Библиотека кодирования : VirtualDub build 35491/release

Видео
Идентификатор : 0
Формат : MPEG-4 Visual
Профиль формата : Advanced Simple@L5
Параметр BVOP формата : 2
Параметр QPel формата : Нет
Параметр GMC формата : Без точки перехода
Параметр матрицы формата : Default (H.263)
Режим смешивания : Сжатый битовый поток
Идентификатор кодека : XVID
Идентификатор кодека/Подсказка : XviD
Продолжительность : 44 м.
Битрейт : 1561 Кбит/сек
Ширина : 720 пикселей
Высота : 400 пикселей
Соотношение сторон : 16:9
Частота кадров : 25,000 кадров/сек
Цветовое пространство : YUV
Субдискретизация насыщенности : 4:2:0
Битовая глубина : 8 бит
Тип развёртки : Прогрессивная
Метод сжатия : С потерями
Бит/(Пиксели*Кадры) : 0.217
Размер потока : 492 Мбайт (89%)
Библиотека кодирования : XviD 65

Аудио
Идентификатор : 1
Формат : AC-3
Формат/Информация : Audio Coding 3
Расширение режима : CM (complete main)
Параметр Endianness формата : Big
Идентификатор кодека : 2000
Продолжительность : 44 м.
Вид битрейта : Постоянный
Битрейт : 192 Кбит/сек
Каналы : 2 канала
Расположение каналов : Front: L R
Частота : 48,0 КГц
Битовая глубина : 16 бит
Метод сжатия : С потерями
Размер потока : 60,5 Мбайт (11%)
Выравнивание : Соединение по промежуткам
Продолжительность промежутка : 40 мс. (1,00 видеокадр)
Время предзагрузки промежутка : 512 мс.





реклама партнёра


Вернуться к началу
 Профиль Отправить личное сообщение  
 
   Похожие торренты   Автор   Торрент   Размер 
В этой теме нет новых непрочитанных сообщений. Белые волки [01-14 из 14] [Боевик, детектив, криминал, 2012] WEBRip

iopuk60

5 | 5

8.75 ГБ

В этой теме нет новых непрочитанных сообщений. Ментовские войны 7 [01-24 из 24] [Боевик, детектив, криминал, 2013] WEBRip

iopuk60

2 | 2

13.02 ГБ

В этой теме нет новых непрочитанных сообщений. Цезарь (8 из 8) [Детектив, криминал,2013] WEBRip

iopuk60

0 | 3

4.34 ГБ

В этой теме нет новых непрочитанных сообщений. Клянёмся защищать [8 из 8] [Детектив, криминал, 2014] WEBRip

iopuk60

1 | 3

4.34 ГБ

В этой теме нет новых непрочитанных сообщений. Так далеко, так близко [8 из 8] [Детектив, криминал,2014] WEBRip

iopuk60

1 | 3

4.34 ГБ

В этой теме нет новых непрочитанных сообщений. Тихая охота [01-30 из 30] [Детектив, криминал.2014] WEBRip

iopuk60

3 | 2

13.05 ГБ

В этой теме нет новых непрочитанных сообщений. Такая работа (2 сезон: 1-31 серии из 31) [детектив, криминал, 2016] WEBRip

salma3

253 | 145

15.27 ГБ


Начать новую тему Ответить на тему  [ 1 сообщение ] 




Для Мосгорсуда, Роскомнадзора и рекламодателей:: mosgorsud-torrent[собачка]yandex.ru