Торрент файл
скачать торрент магнет ссылка Добавлен: 10 июн 2014, 23:05
Размер: 4.34 ГБ
Сидеров: 0
Личеров: 2
Статус: (salma3)
Автор

СообщениеДобавлено: 10 июн 2014, 23:05 

Не в сети
Аватара пользователя
Дата регистрации:
26 ноя 2013, 12:32
Возраст: 56
Спасибо: 52 / 7
Сообщения: 66
Откуда: СССР
Год выпуска: 2014
Выпущено: Россия ,Студия ТГ ФИЛЬМ, РЕН ТВ
Жанр: Фэнтези,комедия
Перевод: Не требуется
Режисёр: Александр Мохов
В ролях: Павел Прилучный, Марчин Руй, Игорь Жижикин, Александра Флоринская, Елена Ташаева, Александр Мохов, Илья Исаев, Юлия Такшина, Михаил Горевой, Михаил Полицеймако, Дмитрий Митюрич, Ангелина Добророднова, Дарья Сагалова, Кирилл Дубровицкий, Александр Числов, Агата Муцениеце, Сергей Романович, Даниил Меркулов, Юлия Самойленко, Ольга Дементьева, Светлана Устинова, Иван Литвинов, Екатерина Долгова, Александр Стёпин
О фильме:Экранизация двух первых романов из цикла Вадима Панова «Тайный Город» – «Войны начинают неудачники» и «Командор войны». Сериал-фэнтези «Тайный город» рассказывает о «другой Москве», где неизвестно — сколько сердец у твоего соседа. Ведьмы, оборотни… Наши предки преследовали их и беспощадно уничтожали. Но потомки этих исчезнувших цивилизаций и сейчас обитают в магическом Тайном городе, который много тысяч лет существует на территории Москвы и сокрыт от глаз обычных людей защитными чарами. Но некоторым все же удастся в него заглянуть, и даже — освоиться в Тайном Городе.
Сэмпл
Качество: DVDRip
Видео: 720x400 (1.80:1), 25 fps, XviD MPEG-4 ~1404 kbps avg, 0.26 bit/pixel
Аудио: 48 kHz, AC3 Dolby Digital, 2/0 (L,R) ch, ~192 kbps
Продолжительность: 8 х ~ 00:48:00
Общее
Полное имя : D:\Мои фильмы\Tajnyj_gorod_S1_1-8iz8_2014_XviD_DVDRip\Tajnyj_gorod_S1_01_iz_8_2014_DVDRip.avi
Формат : AVI
Формат/Информация : Audio Video Interleave
Размер файла : 556 Мбайт
Продолжительность : 48 м.
Общий поток : 1606 Кбит/сек
Программа кодирования : VirtualDubModRus 1.5.10.2 (build 2542/release)
Библиотека кодирования : VirtualDub build 35491/release

Видео
Идентификатор : 0
Формат : MPEG-4 Visual
Профиль формата : Advanced Simple@L5
Параметр BVOP формата : 2
Параметр QPel формата : Нет
Параметр GMC формата : Без точки перехода
Параметр матрицы формата : Default (H.263)
Режим смешивания : Сжатый битовый поток
Идентификатор кодека : XVID
Идентификатор кодека/Подсказка : XviD
Продолжительность : 48 м.
Битрейт : 1404 Кбит/сек
Ширина : 720 пикселей
Высота : 400 пикселей
Соотношение сторон : 16:9
Частота кадров : 25,000 кадров/сек
Цветовое пространство : YUV
Субдискретизация насыщенности : 4:2:0
Битовая глубина : 8 бит
Тип развёртки : Прогрессивная
Метод сжатия : С потерями
Бит/(Пиксели*Кадры) : 0.195
Размер потока : 486 Мбайт (87%)
Библиотека кодирования : XviD 65

Аудио
Идентификатор : 1
Формат : AC-3
Формат/Информация : Audio Coding 3
Расширение режима : CM (complete main)
Параметр Endianness формата : Big
Идентификатор кодека : 2000
Продолжительность : 48 м.
Вид битрейта : Постоянный
Битрейт : 192 Кбит/сек
Каналы : 2 канала
Расположение каналов : Front: L R
Частота : 48,0 КГц
Битовая глубина : 16 бит
Метод сжатия : С потерями
Размер потока : 66,5 Мбайт (12%)
Выравнивание : Соединение по промежуткам
Продолжительность промежутка : 40 мс. (1,00 видеокадр)
Время предзагрузки промежутка : 512 мс.





реклама партнёра


Вернуться к началу
 Профиль Отправить личное сообщение  
 
   Похожие торренты   Автор   Торрент   Размер 
В этой теме нет новых непрочитанных сообщений. Тайный город [01-08 из 08] (Александр Мохов) [2014, фэнтези, DVDRip | лицензия]

Nickolas3435

472 | 55

5.38 ГБ

В этой теме нет новых непрочитанных сообщений. Тайный город [01-08] [Фэнтези, 2014] SATRip

Dracon

828 | 68

4.22 ГБ

В этой теме нет новых непрочитанных сообщений. Тайный город 2 [серии 1-8 из 8] [Фэнтези, 2014] SATRip

Dracon

7 | 2

4.65 ГБ

В этой теме нет новых непрочитанных сообщений. Тайный город (Сезон 1-2, Серия 1-16 из 16) (Александр Мохов) [2014, Фэнтези,ужасы, фантастика, драма, вампиры, экранизация, DVBRip-AVC]

Враг Нароода

65 | 24

17.87 ГБ

В этой теме нет новых непрочитанных сообщений. Город отмороженных (Белый город, Замерзший город) / Valkoinen kaupunki (Аку Лоухимиес / Aku Louhimies) [2006г., Финляндия, драма, DVDRip] avo

Alfredovich

2 | 2

1.39 ГБ

В этой теме нет новых непрочитанных сообщений. Город призраков / Ghost town [фэнтези, мелодрама, комедия, 2008] BDRip 1080p. Dvo+Sub

salma3

57 | 4

7.76 ГБ

В этой теме нет новых непрочитанных сообщений. Тайный код взломан. Еда [документальный, 2014] WEB-DLRip

salma3

110 | 7

520.7 МБ


Начать новую тему Ответить на тему  [ 1 сообщение ] 




Для Мосгорсуда, Роскомнадзора и рекламодателей:: mosgorsud-torrent[собачка]yandex.ru