Торрент файл
скачать торрент магнет ссылка Добавлен: 09 июн 2014, 16:58
Размер: 13.02 ГБ
Сидеров: 4
Личеров: 3
Автор

СообщениеДобавлено: 09 июн 2014, 16:59 

Не в сети
Аватара пользователя
Дата регистрации:
26 ноя 2013, 12:32
Возраст: 56
Спасибо: 52 / 7
Сообщения: 66
Откуда: СССР
Год выпуска: 2012-2013
Выпущено: Россия ,киностудии «Гамма» по заказу телеканала НТВ
Жанр: Детектив,криминал
Перевод: Не требуется
Режисёр: Андрей Савельев, Юрий Нифонтов, Вячеслав Сорокин, Влад Ланне, Игорь Копылов
В ролях: Максим Дрозд, Юлия Маньковская, Артём Карасёв, Иван Жидков, Сергей Горобченко, Даниил Страхов, Илья Любимов, Сергей Перегудов, Фёдор Добронравов, Юрий Нифонтов, Татьяна Тузова, Алексей Симонов (II), Константин Анисимов, Сергей Габриэлян, Елена Симонова, Андрей Ургант, Игорь Иванов, Олег Протасов, Ингрид Олеринская, Мария Валешная, Олег Гераськин, Игорь Шибанов, Сергей Гамов, Анна Пескова, Андрей Шимко, Андрей Балашов (II), Пётр Семак, Александр Есаулов, Татьяна Бедова, Денис Кириллов, Соня Дьяченко, Геннадий Меньшиков, Евгений Глуховский, Лев Цвейг, Алексей Чуев, Сергей Соболев, Дмитрий Кочкин, Галина Сумина, Артём Меронен, Вячеслав Карпов
О фильме: Это секретная служба внутри системы МВД, её разведка, её глаза и уши. Герои нашей истории - настоящие профессионалы, влюблённые в своё дело, борцы с преступностью. Им противостоят опытные, хитрые, имеющие связи в высших эшелонах власти преступники, которые, сняв «треники», надели костюмы от «Бриони», и стали добропорядочными коммерсантами. Таков вор в законе Ребус, перебравшийся в Питер с «северов» - Сибирь оказалась слишком мала для масштабов Ребуса, и он присмотрел для себя «лакомый кусок» в северной столице. И всё бы получилось, если бы в дело не вмешался экипаж 735… Главная героиня сериала, Полина Ольховская теряет любимого человека - сотрудник «наружки» Антон Гурьев был убит при слежке за неуловимым киллером по кличке Ташкент. Полина решает встать на путь мести, не подозревая, что он станет для неё дорогой потерь.
Сэмпл
Качество: DVDRip
Видео: 720x400 (1.80:1), 25 fps, XviD MPEG-4 ~1558 kbps avg, 0.26 bit/pixel
Аудио: 48 kHz, AC3 Dolby Digital, 2/0 (L,R) ch, ~192 kbps
Продолжительность: 24 x ~ 00:44:00
Общее
Полное имя : D:\Мои фильмы\Naruzhnoe_nabljudenie_01-24iz24_2012-2013_XviD_DVDRip\Naruzhnoe_nabljudenie_01_iz_24_2012-2013_DVDRip.avi
Формат : AVI
Формат/Информация : Audio Video Interleave
Размер файла : 555 Мбайт
Продолжительность : 44 м.
Общий поток : 1761 Кбит/сек
Библиотека кодирования : VirtualDub build 35491/release

Видео
Идентификатор : 0
Формат : MPEG-4 Visual
Профиль формата : Advanced Simple@L5
Параметр BVOP формата : 2
Параметр QPel формата : Нет
Параметр GMC формата : Без точки перехода
Параметр матрицы формата : Default (H.263)
Режим смешивания : Сжатый битовый поток
Идентификатор кодека : XVID
Идентификатор кодека/Подсказка : XviD
Продолжительность : 44 м.
Битрейт : 1559 Кбит/сек
Ширина : 720 пикселей
Высота : 400 пикселей
Соотношение сторон : 16:9
Частота кадров : 25,000 кадров/сек
Цветовое пространство : YUV
Субдискретизация насыщенности : 4:2:0
Битовая глубина : 8 бит
Тип развёртки : Прогрессивная
Метод сжатия : С потерями
Бит/(Пиксели*Кадры) : 0.217
Размер потока : 492 Мбайт (89%)
Библиотека кодирования : XviD 64

Аудио
Идентификатор : 1
Формат : AC-3
Формат/Информация : Audio Coding 3
Расширение режима : CM (complete main)
Параметр Endianness формата : Big
Идентификатор кодека : 2000
Продолжительность : 44 м.
Вид битрейта : Постоянный
Битрейт : 192 Кбит/сек
Каналы : 2 канала
Расположение каналов : Front: L R
Частота : 48,0 КГц
Битовая глубина : 16 бит
Метод сжатия : С потерями
Размер потока : 60,6 Мбайт (11%)
Выравнивание : Соединение по промежуткам
Продолжительность промежутка : 40 мс. (1,00 видеокадр)
Время предзагрузки промежутка : 512 мс.





реклама партнёра


Вернуться к началу
 Профиль Отправить личное сообщение  
 
   Похожие торренты   Автор   Торрент   Размер 
В этой теме нет новых непрочитанных сообщений. Леди-детектив мисс Фрайни Фишер / Miss Fisher's Murder Mysteries [S01-02] [драма, криминал, детектив, 2012-2013] DVDRip, HDRip, Mvo

salma3

151 | 102

15.92 ГБ

В этой теме нет новых непрочитанных сообщений. Ночное наблюдение / Ночная стража / Ночные глаза / Night Eyes [Триллер, драма, 1990] DVDRip, Dvo [НТВ][

salma3

86 | 13

747.38 МБ

В этой теме нет новых непрочитанных сообщений. Леди-детектив мисс Фрайни Фишер / Miss Fisher's Murder Mysteries / 2 сезон 1-13 серии из 13 [драма, криминал, детектив, 2012] DVDRip, Mvo

salma3

145 | 54

5.43 ГБ

В этой теме нет новых непрочитанных сообщений. Метод Фрейда [12 из 12] [Детектив,криминал, 2012] DVDRip

iopuk60

3 | 3

8.74 ГБ

В этой теме нет новых непрочитанных сообщений. Собачья работа [1-8 из 8] [Криминал, детектив,2012] DVDRip

iopuk60

0 | 2

4.34 ГБ

В этой теме нет новых непрочитанных сообщений. Друзья на всю жизнь / Vänner för livet [Детектив, криминал, 2013] DVDRip, Avo

salma3

13 | 3

932.45 МБ

В этой теме нет новых непрочитанных сообщений. Город мечты / Magic City [S01-02] (Эдвард Бьянчи, Саймон Селлан Джоунс, Дэвид Петрарка) [2012-2013, драма, криминал, детектив, HDTVRip | Арк-ТВ]

Dracon

41 | 18

8.62 ГБ


Начать новую тему Ответить на тему  [ 1 сообщение ] 




Для Мосгорсуда, Роскомнадзора и рекламодателей:: mosgorsud-torrent[собачка]yandex.ru