Торрент файл
скачать торрент магнет ссылка Добавлен: 09 июн 2014, 08:50
Размер: 2.17 ГБ
Сидеров: 1
Личеров: 2
Статус: (salma3)
Автор

СообщениеДобавлено: 09 июн 2014, 08:54 

Не в сети
Аватара пользователя
Дата регистрации:
26 ноя 2013, 12:32
Возраст: 56
Спасибо: 52 / 7
Сообщения: 66
Откуда: СССР
Год выпуска: 2014
Выпущено: Россия ,ООО "Студия Русский Проект" по заказу Первого канала
Жанр: Драма, мелодрама
Перевод: Не требуется
Режисёр: Альбина Антипенко
В ролях: Серафима Огарёва, Игорь Сигов, Татьяна Чердынцева
О фильме: Когда речь идёт о любви, можно ли всё обдумать, просчитать? Что лучше послушать - своё сердце или голову? Можно использовать коварный план и слепой расчёт, но принесёт ли это счастье? Любовь и коварство всегда ходят рядом. История двух женщин, чьи судьбы переплелись в любви, предательстве и ненависти любовного треугольника...
Сэмпл
Качество: SATRip
Видео: 720x384 (1.80:1), 25 fps, XviD MPEG-4 ~1518 kbps avg, 0.26 bit/pixel
Аудио: 48 kHz, AC3 Dolby Digital, 2/0 (L,R) ch, ~192 kbps
Продолжительность: 4 х ~ 00:45:00
Общее
Полное имя : D:\Мои фильмы\Slepoj_raschjot_1-4iz4_2014_XviD_SATRip\Slepoj_raschjot_1_iz_4_2014_SATRip.avi
Формат : AVI
Формат/Информация : Audio Video Interleave
Размер файла : 555 Мбайт
Продолжительность : 45 м.
Общий поток : 1719 Кбит/сек
Программа кодирования : VirtualDubModRus 1.5.10.2 (build 2542/release)
Библиотека кодирования : VirtualDub build 35491/release

Видео
Идентификатор : 0
Формат : MPEG-4 Visual
Профиль формата : Advanced Simple@L5
Параметр BVOP формата : 2
Параметр QPel формата : Нет
Параметр GMC формата : Без точки перехода
Параметр матрицы формата : Default (H.263)
Режим смешивания : Сжатый битовый поток
Идентификатор кодека : XVID
Идентификатор кодека/Подсказка : XviD
Продолжительность : 45 м.
Битрейт : 1518 Кбит/сек
Ширина : 720 пикселей
Высота : 384 пикселя
Соотношение сторон : 1,85:1
Частота кадров : 25,000 кадров/сек
Цветовое пространство : YUV
Субдискретизация насыщенности : 4:2:0
Битовая глубина : 8 бит
Тип развёртки : Прогрессивная
Метод сжатия : С потерями
Бит/(Пиксели*Кадры) : 0.220
Размер потока : 490 Мбайт (88%)
Библиотека кодирования : XviD 65

Аудио
Идентификатор : 1
Формат : AC-3
Формат/Информация : Audio Coding 3
Расширение режима : CM (complete main)
Параметр Endianness формата : Big
Идентификатор кодека : 2000
Продолжительность : 45 м.
Вид битрейта : Постоянный
Битрейт : 192 Кбит/сек
Каналы : 2 канала
Расположение каналов : Front: L R
Частота : 48,0 КГц
Битовая глубина : 16 бит
Метод сжатия : С потерями
Размер потока : 62,0 Мбайт (11%)
Выравнивание : Соединение по промежуткам
Продолжительность промежутка : 40 мс. (1,00 видеокадр)
Время предзагрузки промежутка : 512 мс.





реклама партнёра


Вернуться к началу
 Профиль Отправить личное сообщение  
 
   Похожие торренты   Автор   Торрент   Размер 
В этой теме нет новых непрочитанных сообщений. Слепой расчет [01-02 из 02] [Криминал, мелодрама, 2014] HDTVRip

Dracon

266 | 38

2.82 ГБ

В этой теме нет новых непрочитанных сообщений. Холодный расчет [01-04 из 04] (Андрей Балашов) [2014, Криминальная драма, SATRip]

Nickolas3435

196 | 9

2.15 ГБ

В этой теме нет новых непрочитанных сообщений. Расчёт / The Clearing [Триллер, драма, криминал, 2004] BDRip 720p, Mvo+Avo+Sub

salma3

1 | 2

5.31 ГБ

В этой теме нет новых непрочитанных сообщений. Слепой / Thaandavam [Боевик, триллер, драма, 2012] HDRip, Avo

salma3

40 | 7

2.05 ГБ

В этой теме нет новых непрочитанных сообщений. Тальянка [01-08 из 08] [драма, мелодрама, 2014] SATRip

Dracon

1472 | 503

5.11 ГБ

В этой теме нет новых непрочитанных сообщений. Склифосовский 3 [03x01-24] [Драма, мелодрама, 2014] SATRip

Dracon

412 | 121

14.94 ГБ

В этой теме нет новых непрочитанных сообщений. Папа для Софии [1-4 из 4] [Драма, мелодрама, 2014] SATRip

Dracon

194 | 11

2.02 ГБ


Начать новую тему Ответить на тему  [ 1 сообщение ] 




Для Мосгорсуда, Роскомнадзора и рекламодателей:: mosgorsud-torrent[собачка]yandex.ru