Торрент файл
скачать торрент магнет ссылка Добавлен: 09 июн 2014, 06:50
Размер: 4.34 ГБ
Сидеров: 1
Личеров: 3
Статус: (salma3)
Автор

СообщениеДобавлено: 09 июн 2014, 06:52 

Не в сети
Аватара пользователя
Дата регистрации:
26 ноя 2013, 12:32
Возраст: 57
Спасибо: 54 / 8
Сообщения: 66
Откуда: СССР
Год выпуска: 2014
Выпущено: Россия ,Беларусь ,ООО "Форум"
Жанр: Детектив,криминал
Перевод: Не требуется
Режисёр: Вячеслав Никифоров
В ролях: Кирилл Плетнёв, Родион Нахапетов, Дмитрий Исаев, Агния Дитковските, Антон Пампушный, Денис Бургазлиев, Анна Казючиц, Татьяна Казючиц
О фильме: В районе, который курирует майор Началов, действует подпольная лаборатория по производству метамфетамина. От "паленого" наркотика умирают люди. Курсанты высшего учебного заведения МВД - Харламов, Кречетов, Царев и Ушаков заканчивают обучение, осталось несколько дней до диплома. У Жени Кречетова – бурный роман с дочерью Началова, Надеждой. Курсант Харламов допускает конфликт с руководством, в результате чего оказывается под угрозой отчисления. Майор Началов на свой страх и риск берет курсантов к себе в новый отдел, убивая двух зайцев – спасает парней от неприятностей и получает новых, не засвеченных и не коррумпированных работников.
Сэмпл
Качество: WEBRip
Видео: 720x400 (1.80:1), 25 fps, XviD MPEG-4 ~1848 kbps avg, 0.26 bit/pixel
Аудио: 48 kHz, AC3 Dolby Digital, 2/0 (L,R) ch, ~192 kbps
Продолжительность: 8 х ~ 00:45:00
Общее
Полное имя : D:\Мои фильмы\Kljanjomsja_zawiwjat'_1-8iz8_2014_XviD_WEBRip\Kljanjomsja_zawiwjat'_1_iz_8_2014_WEBRip.avi
Формат : AVI
Формат/Информация : Audio Video Interleave
Размер файла : 555 Мбайт
Продолжительность : 44 м.
Общий поток : 1763 Кбит/сек
Программа кодирования : VirtualDubMod 1.5.10.3 | http://www.virtualdub-fr.org || (build 2550/release)
Библиотека кодирования : VirtualDub build 35491/release

Видео
Идентификатор : 0
Формат : MPEG-4 Visual
Профиль формата : Advanced Simple@L5
Параметр BVOP формата : 2
Параметр QPel формата : Нет
Параметр GMC формата : Без точки перехода
Параметр матрицы формата : Default (H.263)
Режим смешивания : Сжатый битовый поток
Идентификатор кодека : XVID
Идентификатор кодека/Подсказка : XviD
Продолжительность : 44 м.
Битрейт : 1561 Кбит/сек
Ширина : 720 пикселей
Высота : 400 пикселей
Соотношение сторон : 16:9
Частота кадров : 25,000 кадров/сек
Цветовое пространство : YUV
Субдискретизация насыщенности : 4:2:0
Битовая глубина : 8 бит
Тип развёртки : Прогрессивная
Метод сжатия : С потерями
Бит/(Пиксели*Кадры) : 0.217
Размер потока : 492 Мбайт (89%)
Библиотека кодирования : XviD 65

Аудио
Идентификатор : 1
Формат : AC-3
Формат/Информация : Audio Coding 3
Расширение режима : CM (complete main)
Параметр Endianness формата : Big
Идентификатор кодека : 2000
Продолжительность : 44 м.
Вид битрейта : Постоянный
Битрейт : 192 Кбит/сек
Каналы : 2 канала
Расположение каналов : Front: L R
Частота : 48,0 КГц
Битовая глубина : 16 бит
Метод сжатия : С потерями
Размер потока : 60,5 Мбайт (11%)
Выравнивание : Соединение по промежуткам
Продолжительность промежутка : 40 мс. (1,00 видеокадр)
Время предзагрузки промежутка : 512 мс.





реклама партнёра


Вернуться к началу
 Профиль Отправить личное сообщение  
 
   Похожие торренты   Автор   Торрент   Размер 
В этой теме нет новых непрочитанных сообщений. Служить и защищать / Proteger & Servir [Комедия, криминал, 2010] DVDRip-AVC, Mvo

salma3

62 | 18

1.45 ГБ

В этой теме нет новых непрочитанных сообщений. Созвездие Змееносец - ученик великого сыщика Пуаро (Алексей Меняйлов) [2014, комедия, криминал, детектив, WEBRip]

vairgin

11 | 3

266.1 МБ

В этой теме нет новых непрочитанных сообщений. Детектив / Thupparivaalan [Боевик, триллер, криминал, детектив, 2017] WEBRip 1080p, Dvo

salma3

35 | 45

6.31 ГБ

В этой теме нет новых непрочитанных сообщений. Детектив / Thupparivaalan [Боевик, триллер, криминал, детектив, 2017] WEBRip, Dvo

salma3

116 | 38

1.4 ГБ

В этой теме нет новых непрочитанных сообщений. Одиночка (1-4 серии из 16) [детектив, криминал, 2016] WEBRip

salma3

327 | 50

2.15 ГБ

В этой теме нет новых непрочитанных сообщений. Газгольдер: Фильм [Криминал, 2014] WEBRip

Dracon

101 | 2

1.45 ГБ

В этой теме нет новых непрочитанных сообщений. Исчезнувшая / Gone Girl [триллер, драма, детектив, 2014] WEBRip-AVC, Dub+Sub

salma3

73 | 23

749.97 МБ


Начать новую тему Ответить на тему  [ 1 сообщение ] 




Для Мосгорсуда, Роскомнадзора и рекламодателей:: mosgorsud-torrent[собачка]yandex.ru