Торрент файл
скачать торрент магнет ссылка Добавлен: 08 июн 2014, 06:27
Размер: 2.17 ГБ
Сидеров: 0
Личеров: 3
Статус: (salma3)
Автор

СообщениеДобавлено: 08 июн 2014, 06:28 

Не в сети
Аватара пользователя
Дата регистрации:
26 ноя 2013, 12:32
Возраст: 57
Спасибо: 54 / 8
Сообщения: 66
Откуда: СССР
Год выпуска: 2013
Выпущено: Россия ,Триикс Медиа
Режиссер: Виктор Татарский
Жанр: Детектив,криминал
Перевод: Не требуется
Режисёр: Виктор Татарский
В ролях: Сергей Горобченко, Алексей Кравченко, Наталья Бурмистрова (II), Татьяна Бондаренко (II), Геннадий Венгеров, Александра Петрова (II), Алёна Азарова, Вячеслав Гасай, Денис Пьянов
О фильме: Полицейские Игорь Крутицкий и Олег Левин уже семь лет работают в одной опергруппе и по праву считаются лучшими в городе. Но в последнее время Левин замечает, что с его напарником и другом что-то происходит: Крутицкий все чаще превышает должностные полномочия, рискует. Однажды во время задержания опасного преступника Игорь открывает огонь на поражение, хотя вокруг - мирные люди. Своей вины он не признает, считая, что защита закона - борьба без правил. Левин до последнего верит, что боевой товарищ угомонится, но тут жена Крутицкого - Наташа - жалуется на побои и просит помочь скрыться от агрессивного супруга. А вскоре Крутицкий переходит опасную грань: при попытке задержать банду налетчиков, Игорь расстреливает всех подозреваемых и, чтобы скрыть свое преступление, грозится убить всю семью Левина, если тот не скажет, что преступники первыми открыли огонь. Олегу предстоит сделать непростой выбор...
Сэмпл
Качество: SATRip
Видео: 720x400 (1.80:1), 25 fps, XviD MPEG-4 ~1848 kbps avg, 0.26 bit/pixel
Аудио: 48 kHz, AC3 Dolby Digital, 2/0 (L,R) ch, ~192 kbps
Продолжительность: 4 х ~ 00:43:00
Общее
Полное имя : D:\Мои фильмы\Dvojnoj_bljuz_1-4iz4_2013_XviD_SATRip\Dvojnoj_bljuz_1_iz_4_2013_SATRip.avi
Формат : AVI
Формат/Информация : Audio Video Interleave
Размер файла : 555 Мбайт
Продолжительность : 43 м.
Общий поток : 1788 Кбит/сек
Библиотека кодирования : VirtualDub build 35491/release

Видео
Идентификатор : 0
Формат : MPEG-4 Visual
Профиль формата : Advanced Simple@L5
Параметр BVOP формата : 2
Параметр QPel формата : Нет
Параметр GMC формата : Без точки перехода
Параметр матрицы формата : Default (H.263)
Режим смешивания : Сжатый битовый поток
Идентификатор кодека : XVID
Идентификатор кодека/Подсказка : XviD
Продолжительность : 43 м.
Битрейт : 1586 Кбит/сек
Ширина : 720 пикселей
Высота : 400 пикселей
Соотношение сторон : 16:9
Частота кадров : 25,000 кадров/сек
Цветовое пространство : YUV
Субдискретизация насыщенности : 4:2:0
Битовая глубина : 8 бит
Тип развёртки : Прогрессивная
Метод сжатия : С потерями
Бит/(Пиксели*Кадры) : 0.220
Размер потока : 493 Мбайт (89%)
Библиотека кодирования : XviD 65

Аудио
Идентификатор : 1
Формат : AC-3
Формат/Информация : Audio Coding 3
Расширение режима : CM (complete main)
Параметр Endianness формата : Big
Идентификатор кодека : 2000
Продолжительность : 43 м.
Вид битрейта : Постоянный
Битрейт : 192 Кбит/сек
Каналы : 2 канала
Расположение каналов : Front: L R
Частота : 48,0 КГц
Битовая глубина : 16 бит
Метод сжатия : С потерями
Размер потока : 59,6 Мбайт (11%)
Выравнивание : Соединение по промежуткам
Продолжительность промежутка : 40 мс. (1,00 видеокадр)
Время предзагрузки промежутка : 512 мс.





реклама партнёра


Вернуться к началу
 Профиль Отправить личное сообщение  
 
   Похожие торренты   Автор   Торрент   Размер 
В этой теме нет новых непрочитанных сообщений. Двойной просчет / Double Jeopardy [триллер, криминал, детектив, 1999] WEB-DLRip-AVC, Dub

salma3

123 | 32

745.76 МБ

В этой теме нет новых непрочитанных сообщений. Двойной просчет / Double Jeopardy [триллер, криминал, детектив, 1999] WEBRip 1080p, Dvo+Avo+Sub

salma3

27 | 4

8.49 ГБ

В этой теме нет новых непрочитанных сообщений. Двойной просчет / Double Jeopardy [триллер, драма, криминал, детектив, 1999] WEB-DL 720p, Dvo+Avo+Sub

salma3

22 | 2

3.82 ГБ

В этой теме нет новых непрочитанных сообщений. Двойной просчет / Double Jeopardy [Триллер, Драма, Детектив, Криминал, 1999] WEBRip-AVC, Dub

salma3

5 | 90

4.7 ГБ

В этой теме нет новых непрочитанных сообщений. Двойной обман / Double Jeopardy [ужасы, триллер, мелодрама, криминал, детектив, 1983] HDRip, Avo

salma3

53 | 15

1.46 ГБ

В этой теме нет новых непрочитанных сообщений. Литейный 4 [08х01-30 из 30] [Детектив, криминал, 2013] SATRip

Dracon

51 | 26

18 ГБ

В этой теме нет новых непрочитанных сообщений. Блюз младенца / Baby Blues [ужасы, 2013] HDRip, Dvo

salma3

6 | 1

1.37 ГБ


Начать новую тему Ответить на тему  [ 1 сообщение ] 




Для Мосгорсуда, Роскомнадзора и рекламодателей:: mosgorsud-torrent[собачка]yandex.ru