Торрент файл
скачать торрент магнет ссылка Добавлен: 08 июн 2014, 05:53
Размер: 4.34 ГБ
Сидеров: 0
Личеров: 2
Статус: (salma3)
Автор

СообщениеДобавлено: 08 июн 2014, 05:54 

Не в сети
Аватара пользователя
Дата регистрации:
26 ноя 2013, 12:32
Возраст: 56
Спасибо: 52 / 7
Сообщения: 66
Откуда: СССР
Год выпуска: 2014
Выпущено: Россия ,Кинокомпания "Марс Медиа Энтертейнмент"
Жанр: Детектив, мелодрама
Перевод: Не требуется
Режисёр: Алена Званцова
В ролях: Константин Лавроненко, Полина Агуреева, Александра Урсуляк, Александр Гришин, Евгений Антропов, Роза Хайруллина, Евгения Дмитриева, Глеб Подгородинский, Дмитрий Куличков, Аглая Шиловская, Яна Сексте, Игорь Гордин, Тимур Бадалбейли, Вячеслав Чепурченко, Лидия Байрашевская, Яна Гладких, Арина Нестерова, Юрий Борисов (II), Арина Живова
О фильме: В одном из московских парков находят труп сорокалетней женщины. На первый взгляд, это – смерть от естественных причин, и уголовное дело не возбуждают. Но муж погибшей женщины – банковский аналитик и бывший математик – начинает собственное расследование и приходит к двум выводам. Первый: его жену действительно убили. Второй: у нее был любовник, работающий в полиции. Желая найти виновного в смерти любимой женщины, мужчины объединяют усилия. И вскоре их подозрения падают друг на друга…
Сэмпл
Качество: WEBRip
Видео: 720x400 (1.80:1), 25 fps, XviD MPEG-4 ~1848 kbps avg, 0.26 bit/pixel
Аудио: 48 kHz, AC3 Dolby Digital, 2/0 (L,R) ch, ~192 kbps
Продолжительность: 8 x ~ 00:49:44
Общее
Полное имя : D:\Мои фильмы\Prowaj_ljubimaja_1-8iz8_2014_XviD_WEBRip\Prowaj_ljubimaja_1_iz_8_2014_WEBRip.avi
Формат : AVI
Формат/Информация : Audio Video Interleave
Размер файла : 556 Мбайт
Продолжительность : 48 м.
Общий поток : 1601 Кбит/сек
Программа кодирования : VirtualDubMod 1.5.4.1 (build 2178/release)
Библиотека кодирования : VirtualDub build 35491/release

Видео
Идентификатор : 0
Формат : MPEG-4 Visual
Профиль формата : Advanced Simple@L5
Параметр BVOP формата : 2
Параметр QPel формата : Нет
Параметр GMC формата : Без точки перехода
Параметр матрицы формата : Default (H.263)
Режим смешивания : Сжатый битовый поток
Идентификатор кодека : XVID
Идентификатор кодека/Подсказка : XviD
Продолжительность : 48 м.
Битрейт : 1400 Кбит/сек
Ширина : 720 пикселей
Высота : 400 пикселей
Соотношение сторон : 16:9
Частота кадров : 25,000 кадров/сек
Цветовое пространство : YUV
Субдискретизация насыщенности : 4:2:0
Битовая глубина : 8 бит
Тип развёртки : Прогрессивная
Метод сжатия : С потерями
Бит/(Пиксели*Кадры) : 0.194
Размер потока : 486 Мбайт (87%)
Библиотека кодирования : XviD 65

Аудио
Идентификатор : 1
Формат : AC-3
Формат/Информация : Audio Coding 3
Расширение режима : CM (complete main)
Параметр Endianness формата : Big
Идентификатор кодека : 2000
Продолжительность : 48 м.
Вид битрейта : Постоянный
Битрейт : 192 Кбит/сек
Каналы : 2 канала
Расположение каналов : Front: L R
Частота : 48,0 КГц
Битовая глубина : 16 бит
Метод сжатия : С потерями
Размер потока : 66,6 Мбайт (12%)
Выравнивание : Соединение по промежуткам
Продолжительность промежутка : 40 мс. (1,00 видеокадр)
Время предзагрузки промежутка : 512 мс.





реклама партнёра


Вернуться к началу
 Профиль Отправить личное сообщение  
 
   Похожие торренты   Автор   Торрент   Размер 
В этой теме нет новых непрочитанных сообщений. Прощай любимая / Arrivederci amore, ciao [триллер, драма, криминал, 2006] DVD5, Dvo

salma3

6 | 3

4.27 ГБ

В этой теме нет новых непрочитанных сообщений. Охотники за головами [8 из 8] [Детектив, мелодрама,2014] WEBRip

iopuk60

0 | 3

4.34 ГБ

В этой теме нет новых непрочитанных сообщений. Любовь сквозь время / Winter's Tale [фэнтези, драма, мелодрама, детектив, 2014] WebRip, dub [звук с TS]

Dracon

9 | 5

2.06 ГБ

В этой теме нет новых непрочитанных сообщений. Любимая / Beloved [ужасы, драма, детектив, 1998] DVDRip, Dvo

salma3

0 | 3

1.38 ГБ

В этой теме нет новых непрочитанных сообщений. Моя любимая [2014 г., Amateur, CamRip 480p]

friizze

3 | 3

29.63 МБ

В этой теме нет новых непрочитанных сообщений. Моя любимая [2014 г., Amateur, Blowjob, CamRip]

friizze

7 | 4

334.67 МБ

В этой теме нет новых непрочитанных сообщений. Моя любимая свекровь [01-04 из 04] [Мелодрама, 2016] WEB-DLRip

salma3

674 | 152

2.34 ГБ


Начать новую тему Ответить на тему  [ 1 сообщение ] 




Для Мосгорсуда, Роскомнадзора и рекламодателей:: mosgorsud-torrent[собачка]yandex.ru