Торрент файл
скачать торрент магнет ссылка Добавлен: 06 июн 2014, 18:50
Размер: 17.36 ГБ
Сидеров: 0
Личеров: 2
Статус: (salma3)
Автор

СообщениеДобавлено: 06 июн 2014, 18:50 

Не в сети
Аватара пользователя
Дата регистрации:
26 ноя 2013, 12:32
Возраст: 56
Спасибо: 52 / 7
Сообщения: 66
Откуда: СССР
Год выпуска: 2013
Выпущено: Россия ,Триикс Медиа
Жанр: Боевик, криминал, детектив
Перевод: Не требуется
Режисёр: Олег Ларин
В ролях: Андрей Чубченко, Кирилл Полухин, Ян Цапник, Эльдар Лебедев, Татьяна Колганова, Сергей Апрельский, Татьяна Черкасова, Елизавета Карнаух, Михаил Трясоруков, Полина Булычёва, Сергей Шкарбан, Владислав Резник, Игорь Павлов, Дмитрий Белов, Константин Фисенко, Анна Табанина, Евгения Игумнова, Дмитрий Сутырин, Владимир Сута, Алексей Макрецкий, Александр Загребин, Сергей Кошонин, Роман Притула, Дмитрий Мурашев, Александр Петров (X), Виктор Чупров, Руслан Кацагаджиев, Глеб Челищев, Евгений Булгаков, Максим Меркулов (II), Александр Ситников, Сергей Воробьёв (IV), Елена Тепляшина, Евгений Добряков, Ирина Обрезкова, Егор Кутенков, Стэнли Красовицки
О фильме: Полковник полиции Виктор Расторгуев осужден за превышение должностных полномочий и отбывает наказание в одной из колоний. Там он близко сходится с бывшим майором МВД Карпатовым, осуждённым за вымогательство. Считается, что он взял всю вину на себя, чтобы не подставить непосредственного начальника – полковника Дмитрия Холодилова, ныне влиятельного генерала системы МВД. Отсидев полтора года, Расторгуев получает возможность выйти на свободу. Но на свободе Расторгуева никто не ждёт: близкие и друзья отвернулись от него... Операция Департамента собственной безопасности МВД по внедрению полковника в окружение генерала Холодилова вступает в завершающую фазу, однако внедренный в преступную группировку штатный негласный сотрудник МВД очень скоро поймет, что в этих смертельных играх он может верить только старым проверенным товарищам, и скоро ему понадобится их помощь и поддержка…
Сэмпл
Качество: SATRip
Видео: 704x400 (1.80:1), 25 fps, XviD MPEG-4 ~1848 kbps avg, 0.26 bit/pixel
Аудио: 48 kHz, AC3 Dolby Digital, 2/0 (L,R) ch, ~192 kbps
Продолжительность: 32 х ~ 00:47:00
Общее
Полное имя : D:\Мои фильмы\Shef_S2_01-32iz32_2013_XviD_SATRip\Shef_S2_01_iz_32_2013_SATRip.avi
Формат : AVI
Формат/Информация : Audio Video Interleave
Размер файла : 555 Мбайт
Продолжительность : 46 м.
Общий поток : 1664 Кбит/сек
Программа кодирования : VirtualDubMod 1.5.10.3 (build 2550/release)
Библиотека кодирования : VirtualDub build 35491/release
Правообладатель : Shuriman

Видео
Идентификатор : 0
Формат : MPEG-4 Visual
Профиль формата : Advanced Simple@L5
Параметр BVOP формата : 2
Параметр QPel формата : Нет
Параметр GMC формата : Без точки перехода
Параметр матрицы формата : Default (H.263)
Режим смешивания : Сжатый битовый поток
Идентификатор кодека : XVID
Идентификатор кодека/Подсказка : XviD
Продолжительность : 46 м.
Битрейт : 1462 Кбит/сек
Ширина : 704 пикселя
Высота : 400 пикселей
Соотношение сторон : 16:9
Частота кадров : 25,000 кадров/сек
Цветовое пространство : YUV
Субдискретизация насыщенности : 4:2:0
Битовая глубина : 8 бит
Тип развёртки : Прогрессивная
Метод сжатия : С потерями
Бит/(Пиксели*Кадры) : 0.208
Размер потока : 488 Мбайт (88%)
Библиотека кодирования : XviD 65

Аудио
Идентификатор : 1
Формат : AC-3
Формат/Информация : Audio Coding 3
Расширение режима : CM (complete main)
Параметр Endianness формата : Big
Идентификатор кодека : 2000
Продолжительность : 46 м.
Вид битрейта : Постоянный
Битрейт : 192 Кбит/сек
Каналы : 2 канала
Расположение каналов : Front: L R
Частота : 48,0 КГц
Битовая глубина : 16 бит
Метод сжатия : С потерями
Размер потока : 64,1 Мбайт (12%)
Выравнивание : Соединение по промежуткам
Продолжительность промежутка : 40 мс. (1,00 видеокадр)
Время предзагрузки промежутка : 512 мс.





реклама партнёра


Вернуться к началу
 Профиль Отправить личное сообщение  
 
   Похожие торренты   Автор   Торрент   Размер 
В этой теме нет новых непрочитанных сообщений. Гончие-6 [1-8 серия из 8] [детектив, криминал, 2013] SATRip

Dracon

0 | 3

4.03 ГБ

В этой теме нет новых непрочитанных сообщений. Литейный 4 [08х01-30 из 30] [Детектив, криминал, 2013] SATRip

Dracon

51 | 26

18 ГБ

В этой теме нет новых непрочитанных сообщений. Дело врачей [101-130] [Криминал, детектив, 2013] SATRip

Dracon

0 | 4

14.61 ГБ

В этой теме нет новых непрочитанных сообщений. Двойной блюз [4 из 4] [Детектив, криминал, 2013] SATRip

iopuk60

0 | 3

2.17 ГБ

В этой теме нет новых непрочитанных сообщений. Клянёмся защищать [8 из 8] [Детектив, криминал,2013] SATRip

iopuk60

0 | 4

4.34 ГБ

В этой теме нет новых непрочитанных сообщений. Сёмин. Возмездие [16 из 16] [Детектив, криминал,2013] SATRip

iopuk60

0 | 2

8.68 ГБ

В этой теме нет новых непрочитанных сообщений. Паутина-7 [01-24 из 24] [Детектив, криминал, 2013-2014] SATRip

Dracon

6 | 3

12.91 ГБ


Начать новую тему Ответить на тему  [ 1 сообщение ] 




Для Мосгорсуда, Роскомнадзора и рекламодателей:: mosgorsud-torrent[собачка]yandex.ru