Торрент файл
скачать торрент магнет ссылка Добавлен: 06 июн 2014, 18:50
Размер: 17.36 ГБ
Сидеров: 0
Личеров: 2
Статус: (salma3)
Автор

СообщениеДобавлено: 06 июн 2014, 18:50 

Не в сети
Аватара пользователя
Дата регистрации:
26 ноя 2013, 12:32
Возраст: 57
Спасибо: 54 / 8
Сообщения: 66
Откуда: СССР
Год выпуска: 2013
Выпущено: Россия ,Триикс Медиа
Жанр: Боевик, криминал, детектив
Перевод: Не требуется
Режисёр: Олег Ларин
В ролях: Андрей Чубченко, Кирилл Полухин, Ян Цапник, Эльдар Лебедев, Татьяна Колганова, Сергей Апрельский, Татьяна Черкасова, Елизавета Карнаух, Михаил Трясоруков, Полина Булычёва, Сергей Шкарбан, Владислав Резник, Игорь Павлов, Дмитрий Белов, Константин Фисенко, Анна Табанина, Евгения Игумнова, Дмитрий Сутырин, Владимир Сута, Алексей Макрецкий, Александр Загребин, Сергей Кошонин, Роман Притула, Дмитрий Мурашев, Александр Петров (X), Виктор Чупров, Руслан Кацагаджиев, Глеб Челищев, Евгений Булгаков, Максим Меркулов (II), Александр Ситников, Сергей Воробьёв (IV), Елена Тепляшина, Евгений Добряков, Ирина Обрезкова, Егор Кутенков, Стэнли Красовицки
О фильме: Полковник полиции Виктор Расторгуев осужден за превышение должностных полномочий и отбывает наказание в одной из колоний. Там он близко сходится с бывшим майором МВД Карпатовым, осуждённым за вымогательство. Считается, что он взял всю вину на себя, чтобы не подставить непосредственного начальника – полковника Дмитрия Холодилова, ныне влиятельного генерала системы МВД. Отсидев полтора года, Расторгуев получает возможность выйти на свободу. Но на свободе Расторгуева никто не ждёт: близкие и друзья отвернулись от него... Операция Департамента собственной безопасности МВД по внедрению полковника в окружение генерала Холодилова вступает в завершающую фазу, однако внедренный в преступную группировку штатный негласный сотрудник МВД очень скоро поймет, что в этих смертельных играх он может верить только старым проверенным товарищам, и скоро ему понадобится их помощь и поддержка…
Сэмпл
Качество: SATRip
Видео: 704x400 (1.80:1), 25 fps, XviD MPEG-4 ~1848 kbps avg, 0.26 bit/pixel
Аудио: 48 kHz, AC3 Dolby Digital, 2/0 (L,R) ch, ~192 kbps
Продолжительность: 32 х ~ 00:47:00
Общее
Полное имя : D:\Мои фильмы\Shef_S2_01-32iz32_2013_XviD_SATRip\Shef_S2_01_iz_32_2013_SATRip.avi
Формат : AVI
Формат/Информация : Audio Video Interleave
Размер файла : 555 Мбайт
Продолжительность : 46 м.
Общий поток : 1664 Кбит/сек
Программа кодирования : VirtualDubMod 1.5.10.3 (build 2550/release)
Библиотека кодирования : VirtualDub build 35491/release
Правообладатель : Shuriman

Видео
Идентификатор : 0
Формат : MPEG-4 Visual
Профиль формата : Advanced Simple@L5
Параметр BVOP формата : 2
Параметр QPel формата : Нет
Параметр GMC формата : Без точки перехода
Параметр матрицы формата : Default (H.263)
Режим смешивания : Сжатый битовый поток
Идентификатор кодека : XVID
Идентификатор кодека/Подсказка : XviD
Продолжительность : 46 м.
Битрейт : 1462 Кбит/сек
Ширина : 704 пикселя
Высота : 400 пикселей
Соотношение сторон : 16:9
Частота кадров : 25,000 кадров/сек
Цветовое пространство : YUV
Субдискретизация насыщенности : 4:2:0
Битовая глубина : 8 бит
Тип развёртки : Прогрессивная
Метод сжатия : С потерями
Бит/(Пиксели*Кадры) : 0.208
Размер потока : 488 Мбайт (88%)
Библиотека кодирования : XviD 65

Аудио
Идентификатор : 1
Формат : AC-3
Формат/Информация : Audio Coding 3
Расширение режима : CM (complete main)
Параметр Endianness формата : Big
Идентификатор кодека : 2000
Продолжительность : 46 м.
Вид битрейта : Постоянный
Битрейт : 192 Кбит/сек
Каналы : 2 канала
Расположение каналов : Front: L R
Частота : 48,0 КГц
Битовая глубина : 16 бит
Метод сжатия : С потерями
Размер потока : 64,1 Мбайт (12%)
Выравнивание : Соединение по промежуткам
Продолжительность промежутка : 40 мс. (1,00 видеокадр)
Время предзагрузки промежутка : 512 мс.





реклама партнёра


Вернуться к началу
 Профиль Отправить личное сообщение  
 
   Похожие торренты   Автор   Торрент   Размер 
В этой теме нет новых непрочитанных сообщений. Литейный 4 [08х01-30 из 30] [Детектив, криминал, 2013] SATRip

Dracon

51 | 26

18 ГБ

В этой теме нет новых непрочитанных сообщений. Ментовские войны [S05-S07] [детектив, криминал, 2010-2013] SATRip-AVC, WEB-DLRip-AVC

salma3

2 | 10

35.48 ГБ

В этой теме нет новых непрочитанных сообщений. Леди-детектив мисс Фрайни Фишер / Miss Fisher's Murder Mysteries [S01-02] [драма, криминал, детектив, 2012-2013] DVDRip, HDRip, Mvo

salma3

151 | 102

15.92 ГБ

В этой теме нет новых непрочитанных сообщений. Шеф 2 [S02] (Олег Ларин) [Боевик, криминал, детектив, 2013] HDTVRip

Dracon

481 | 213

17.19 ГБ

В этой теме нет новых непрочитанных сообщений. Ледников (1-16 (16) Серии) [2013, Детектив, SATRip]

marya111

0 | 1

7.83 ГБ

В этой теме нет новых непрочитанных сообщений. Шеф 2 [S02] (Олег Ларин) [Боевик, криминал, детектив, 2013] HDTVRip 720p, Mvo

Dracon

73 | 155

49.78 ГБ

В этой теме нет новых непрочитанных сообщений. Шеф 2 [S02] (Олег Ларин) [Боевик, криминал, детектив, 2013] HDTV 1080i

Dracon

34 | 59

82.94 ГБ


Начать новую тему Ответить на тему  [ 1 сообщение ] 




Для Мосгорсуда, Роскомнадзора и рекламодателей:: mosgorsud-torrent[собачка]yandex.ru