Торрент файл
скачать торрент магнет ссылка Добавлен: 05 июн 2014, 12:43
Размер: 13.02 ГБ
Сидеров: 0
Личеров: 2
Статус: (salma3)
Автор

СообщениеДобавлено: 05 июн 2014, 12:44 

Не в сети
Аватара пользователя
Дата регистрации:
26 ноя 2013, 12:32
Возраст: 56
Спасибо: 52 / 7
Сообщения: 66
Откуда: СССР
Год выпуска: 2012
Выпущено: Россия ,Триикс Медиа
Жанр: Детектив,криминал
Перевод: Не требуется
Режисёр: Анатолий Артамонов, Олег Ларин
В ролях: Андрей Чубченко, Ян Цапник, Эльдар Лебедев, Кирилл Полухин, Игорь Павлов, Татьяна Черкасова, Аркадий Коваль, Алексей Фокин, Филипп Величко, Евгений Савчук, Валерий Ошомков, Дмитрий Кочкин, Анна Королёва (II), Николай Смирнов (V), Татьяна Ермилова (II), Андрей Кузнецов, Александр Саюталин, Олег Алмазов, Олег Куликович, Марьяна (Марианна) Семенова, Сергей Гамов, Максим Сергеев, Сергей Мардарь, Ярослав Иванов, Александр Корнеев (III), Наталья Бурмистрова (II), Валерий Малюшин, Елена Мартыненко, Михаил Кудрявцев, Александр Габов, Оксана Скачкова, Евгения Табакова, Андрей Мезенцев, Антон Забелин, Станислав Воронецкий, Роман Зайдуллин, Антон Горчаков, Данила Шевченко
О фильме: Для своих подчиненных он просто Шеф, для уголовников – кость в горле. У него простые правила: честно служить, никого не бояться и не предавать своих. Шефа ждет немало проблем на службе. Он жесткий и непреклонный человек. Многим его методы приходятся не по душе, и в его жизненной копилке врагов прибавится. Но среди огромного количества бандитов есть один по-настоящему опасный человек – Максим Тихомиров. Отсидев срок, он вышел из тюрьмы и теперь хочет вернуть себе то, что отняли его бывшие подельники. Постепенно Тихомиров подминает под себя весь город. И единственный, кто может ему противостоять, – Виктор Расторгуев.
Сэмпл
Качество: SATRip
Видео: 720x400 (1.80:1), 25 fps, XviD MPEG-4 ~1848 kbps avg, 0.26 bit/pixel
Аудио: 48 kHz, AC3 Dolby Digital, 2/0 (L,R) ch, ~192 kbps
Продолжительность: 24 х ~00:44:00
Общее
Полное имя : D:\Мои фильмы\Shef_S1_01-24iz24_2012_XviD_SATRip\Shef_S1_01_iz_24_2012_SATRip.avi
Формат : AVI
Формат/Информация : Audio Video Interleave
Размер файла : 555 Мбайт
Продолжительность : 45 м.
Общий поток : 1699 Кбит/сек
Библиотека кодирования : VirtualDub build 35491/release

Видео
Идентификатор : 0
Формат : MPEG-4 Visual
Профиль формата : Advanced Simple@L5
Параметр BVOP формата : 2
Параметр QPel формата : Нет
Параметр GMC формата : Без точки перехода
Параметр матрицы формата : Default (H.263)
Режим смешивания : Сжатый битовый поток
Идентификатор кодека : XVID
Идентификатор кодека/Подсказка : XviD
Продолжительность : 45 м.
Битрейт : 1498 Кбит/сек
Ширина : 720 пикселей
Высота : 400 пикселей
Соотношение сторон : 16:9
Частота кадров : 25,000 кадров/сек
Цветовое пространство : YUV
Субдискретизация насыщенности : 4:2:0
Битовая глубина : 8 бит
Тип развёртки : Прогрессивная
Метод сжатия : С потерями
Бит/(Пиксели*Кадры) : 0.208
Размер потока : 489 Мбайт (88%)
Библиотека кодирования : XviD 65

Аудио
Идентификатор : 1
Формат : AC-3
Формат/Информация : Audio Coding 3
Расширение режима : CM (complete main)
Параметр Endianness формата : Big
Идентификатор кодека : 2000
Продолжительность : 45 м.
Вид битрейта : Постоянный
Битрейт : 192 Кбит/сек
Каналы : 2 канала
Расположение каналов : Front: L R
Частота : 48,0 КГц
Битовая глубина : 16 бит
Метод сжатия : С потерями
Размер потока : 62,7 Мбайт (11%)
Выравнивание : Соединение по промежуткам
Продолжительность промежутка : 40 мс. (1,00 видеокадр)
Время предзагрузки промежутка : 512 мс.





реклама партнёра


Вернуться к началу
 Профиль Отправить личное сообщение  
 
   Похожие торренты   Автор   Торрент   Размер 
В этой теме нет новых непрочитанных сообщений. Телохранитель 4 [16 из 16] [Детектив, криминал, 2012] SATRip

iopuk60

0 | 2

8.68 ГБ

В этой теме нет новых непрочитанных сообщений. Дознаватель [24 из 24] [Детектив, криминал, 2012] SATRip

iopuk60

0 | 2

13.03 ГБ

В этой теме нет новых непрочитанных сообщений. По горячим следам-2 [16 из 16] [Детектив,криминал,2012] SATRip

iopuk60

1 | 119

8.67 ГБ

В этой теме нет новых непрочитанных сообщений. Порох и дробь [24 из 24 ] [Детектив, криминал,2012] SATRip

iopuk60

0 | 2

16.43 ГБ

В этой теме нет новых непрочитанных сообщений. Брат за брата 2 [01-24 из 24] [Детектив, криминал, 2012] SATRip

iopuk60

2 | 3

13.01 ГБ

В этой теме нет новых непрочитанных сообщений. Шаповалов (Шапито) [Серия 1-16 из 16] [Детектив, Криминал, Мелодрама,2012] SATRip

iopuk60

5 | 3

8.68 ГБ

В этой теме нет новых непрочитанных сообщений. Полет аистов / Flight of the Storks [боевик, криминал, детектив, 2012] SATRip, Mvo

salma3

16 | 1

1.56 ГБ


Начать новую тему Ответить на тему  [ 1 сообщение ] 




Для Мосгорсуда, Роскомнадзора и рекламодателей:: mosgorsud-torrent[собачка]yandex.ru