Торрент файл
скачать торрент магнет ссылка Добавлен: 04 июн 2014, 07:41
Размер: 8.68 ГБ
Сидеров: 0
Личеров: 2
Статус: (salma3)
Автор

СообщениеДобавлено: 04 июн 2014, 07:43 

Не в сети
Аватара пользователя
Дата регистрации:
26 ноя 2013, 12:32
Возраст: 56
Спасибо: 52 / 7
Сообщения: 66
Откуда: СССР
Год выпуска: 2012
Выпущено: Россия ,ООО "Центр кинопроизводства", ООО "Форвард-Фильм"
Жанр: Детектив, криминал, боевик
Перевод: Не требуется
Режисёр: Валерий Игнатьев
В ролях: Марина Богатова, Эдуард Трухменёв, Татьяна Демидова, Жанна Коханова, Виктория Герасимова, Герман Иванов, Юлия Назаренко, Константин Шелягин, Ульяна Коптяева, Максим Дромашко, Жанна Оганесян, Денис Игнатов
О фильме: Главные герои картины — профессиональные телохранители из агентства "Группа-Р". Находясь день и ночь рядом с людьми, доверившими им жизнь свою и своих близких, им приходится скрупулезно изучать жизнь клиента, чтобы устранить угрожающую ему опасность. Криминальным группам приходится изобретать все более изощренные способы преследования своих жертв. Зрителям же, остается лишь гадать, что на сей раз выкинут злоумышленники и что предпримут телохранители, чтобы предотвратить нежелательные последствия для своих клиентов.
Сэмпл
Качество: SATRip
Видео: 720x384 (1.80:1), 25 fps, XviD MPEG-4 ~1848 kbps avg, 0.26 bit/pixel
Аудио: 48 kHz, AC3 Dolby Digital, 2/0 (L,R) ch, ~192 kbps
Продолжительность: 16 x ~ 00:45:00
Общее
Полное имя : D:\Мои фильмы\Telohranitel'_S4_01-16iz16_2012_XviD_SATRip\Telohranitel'_S4_01_iz_16_2012_SATRip.avi
Формат : AVI
Формат/Информация : Audio Video Interleave
Размер файла : 555 Мбайт
Продолжительность : 44 м.
Общий поток : 1733 Кбит/сек
Программа кодирования : VirtualDubModRus 1.5.10.2 (build 2542/release)
Библиотека кодирования : VirtualDub build 35491/release

Видео
Идентификатор : 0
Формат : MPEG-4 Visual
Профиль формата : Advanced Simple@L5
Параметр BVOP формата : 2
Параметр QPel формата : Нет
Параметр GMC формата : Без точки перехода
Параметр матрицы формата : Default (H.263)
Режим смешивания : Сжатый битовый поток
Идентификатор кодека : XVID
Идентификатор кодека/Подсказка : XviD
Продолжительность : 44 м.
Битрейт : 1531 Кбит/сек
Ширина : 720 пикселей
Высота : 384 пикселя
Соотношение сторон : 1,85:1
Частота кадров : 25,000 кадров/сек
Цветовое пространство : YUV
Субдискретизация насыщенности : 4:2:0
Битовая глубина : 8 бит
Тип развёртки : Прогрессивная
Метод сжатия : С потерями
Бит/(Пиксели*Кадры) : 0.222
Размер потока : 491 Мбайт (88%)
Библиотека кодирования : XviD 65

Аудио
Идентификатор : 1
Формат : AC-3
Формат/Информация : Audio Coding 3
Расширение режима : CM (complete main)
Параметр Endianness формата : Big
Идентификатор кодека : 2000
Продолжительность : 44 м.
Вид битрейта : Постоянный
Битрейт : 192 Кбит/сек
Каналы : 2 канала
Расположение каналов : Front: L R
Частота : 48,0 КГц
Битовая глубина : 16 бит
Метод сжатия : С потерями
Размер потока : 61,5 Мбайт (11%)
Выравнивание : Соединение по промежуткам
Продолжительность промежутка : 40 мс. (1,00 видеокадр)
Время предзагрузки промежутка : 512 мс.





реклама партнёра


Вернуться к началу
 Профиль Отправить личное сообщение  
 
   Похожие торренты   Автор   Торрент   Размер 
В этой теме нет новых непрочитанных сообщений. Телохранитель [Серия 1-4 из 4] [Детектив, 2014] SatRip

Dracon

8 | 4

2.4 ГБ

В этой теме нет новых непрочитанных сообщений. Шеф [24 из 24] [Детектив, криминал, 2012] SATRip

iopuk60

0 | 2

13.02 ГБ

В этой теме нет новых непрочитанных сообщений. Дознаватель [24 из 24] [Детектив, криминал, 2012] SATRip

iopuk60

0 | 2

13.03 ГБ

В этой теме нет новых непрочитанных сообщений. Порох и дробь [24 из 24 ] [Детектив, криминал,2012] SATRip

iopuk60

0 | 2

16.43 ГБ

В этой теме нет новых непрочитанных сообщений. Брат за брата 2 [01-24 из 24] [Детектив, криминал, 2012] SATRip

iopuk60

2 | 5

13.01 ГБ

В этой теме нет новых непрочитанных сообщений. По горячим следам-2 [16 из 16] [Детектив,криминал,2012] SATRip

iopuk60

1 | 120

8.67 ГБ

В этой теме нет новых непрочитанных сообщений. Шаповалов (Шапито) [Серия 1-16 из 16] [Детектив, Криминал, Мелодрама,2012] SATRip

iopuk60

5 | 3

8.68 ГБ


Начать новую тему Ответить на тему  [ 1 сообщение ] 




Для Мосгорсуда, Роскомнадзора и рекламодателей:: mosgorsud-torrent[собачка]yandex.ru