Торрент файл
скачать торрент магнет ссылка Добавлен: 03 июн 2014, 07:10
Размер: 13.03 ГБ
Сидеров: 0
Личеров: 3
Статус: (salma3)
Автор

СообщениеДобавлено: 03 июн 2014, 07:11 

Не в сети
Аватара пользователя
Дата регистрации:
26 ноя 2013, 12:32
Возраст: 57
Спасибо: 54 / 8
Сообщения: 66
Откуда: СССР
Год выпуска: 2012
Выпущено: Россия ,Триикс Медиа
Жанр: Детектив, криминал
Перевод: Не требуется
Режисёр: Андрей Коршунов
В ролях: Яков Шамшин, Кирилл Полухин, Иван Васильев, Артур Мкртчян, Вячеслав Аркунов, Егор Бакулин, Вероника Дмитриева, Николай Смирнов (V), Алексей Белозерцев, Анатолий Ильченко, Владимир Бирюков, Роман Жилкин, Алёна Каримская, Станислав Чернов, Родион Антонкин, Юлия Кудояр, Александр Петров (X), Оксана Скакун, Павел Харизанов, Антон Чернов, Станислав Максимов, Александр Клемантович, Александра Кузнецова, Руслан Мещанов, Валерий Ошомков, Роман Павлушев, Денис Полонский, Михаил Сидаш, Роман Фёдоров, Сергей Евдокимов, Игорь Павлов, Владимир Селезнёв (II), Лилия Ландини, Игорь Лепихин, Тадас Шимилёв, Геннадий Голубев
О фильме: Сериал рассказывает о работе следовательской группы РУВД, занимающейся раскрытием самых разнообразных преступлений - как на "земле", вместе с операми, так и в "высших сферах" бизнеса. Главный герой, Александр Суворов, выпускник юридического факультета Университета (окончил после службы в армии) приходит работать дознавателем в РУВД. Александра воспринимают с иронией - он молод, "зелен", в РУВД работают опытные "волки" - опера и следователи, начальник - 50-летний полковник Осокин кажется грубым и жестким человеком.
Сэмпл
Качество: SATRip
Видео: 720x400 (1.80:1), 25 fps, XviD MPEG-4 ~1848 kbps avg, 0.26 bit/pixel
Аудио: 48 kHz, AC3 Dolby Digital, 2/0 (L,R) ch, ~192 kbps
Продолжительность: 24 x ~ 00:46:00
Общее
Полное имя : D:\Мои фильмы\Doznavatel'_S1_01-24iz24_2012_XviD_SATRip\Doznavatel'_S1_01_iz_24_2012_SATRip.avi
Формат : AVI
Формат/Информация : Audio Video Interleave
Размер файла : 556 Мбайт
Продолжительность : 47 м.
Общий поток : 1636 Кбит/сек
Программа кодирования : VirtualDubMod 1.5.4.1 (build 2178/release)
Библиотека кодирования : VirtualDub build 35491/release

Видео
Идентификатор : 0
Формат : MPEG-4 Visual
Профиль формата : Advanced Simple@L5
Параметр BVOP формата : 2
Параметр QPel формата : Нет
Параметр GMC формата : Без точки перехода
Параметр матрицы формата : Default (H.263)
Режим смешивания : Сжатый битовый поток
Идентификатор кодека : XVID
Идентификатор кодека/Подсказка : XviD
Продолжительность : 47 м.
Битрейт : 1434 Кбит/сек
Ширина : 720 пикселей
Высота : 400 пикселей
Соотношение сторон : 16:9
Частота кадров : 25,000 кадров/сек
Цветовое пространство : YUV
Субдискретизация насыщенности : 4:2:0
Битовая глубина : 8 бит
Тип развёртки : Прогрессивная
Метод сжатия : С потерями
Бит/(Пиксели*Кадры) : 0.199
Размер потока : 487 Мбайт (88%)
Библиотека кодирования : XviD 65

Аудио
Идентификатор : 1
Формат : AC-3
Формат/Информация : Audio Coding 3
Расширение режима : CM (complete main)
Параметр Endianness формата : Big
Идентификатор кодека : 2000
Продолжительность : 47 м.
Вид битрейта : Постоянный
Битрейт : 192 Кбит/сек
Каналы : 2 канала
Расположение каналов : Front: L R
Частота : 48,0 КГц
Битовая глубина : 16 бит
Метод сжатия : С потерями
Размер потока : 65,3 Мбайт (12%)
Выравнивание : Соединение по промежуткам
Продолжительность промежутка : 40 мс. (1,00 видеокадр)
Время предзагрузки промежутка : 512 мс.





реклама партнёра


Вернуться к началу
 Профиль Отправить личное сообщение  
 
   Похожие торренты   Автор   Торрент   Размер 
В этой теме нет новых непрочитанных сообщений. Полет аистов / Flight of the Storks [боевик, криминал, детектив, 2012] SATRip, Mvo

salma3

16 | 1

1.56 ГБ

В этой теме нет новых непрочитанных сообщений. Леди-детектив мисс Фрайни Фишер / Miss Fisher's Murder Mysteries [S01-02] [драма, криминал, детектив, 2012-2013] DVDRip, HDRip, Mvo

salma3

151 | 102

15.92 ГБ

В этой теме нет новых непрочитанных сообщений. Свидетели [01-20 из 20] [детектив, криминал, 2016] SATRip-AVC

salma3

0 | 0

10.36 ГБ

В этой теме нет новых непрочитанных сообщений. Чужой дед (1-2 серии из 2) [детектив, криминал, 2017] SATRip-AVC

salma3

876 | 85

1.31 ГБ

В этой теме нет новых непрочитанных сообщений. Паутина 10 (1-16 серии из 16) [детектив, криминал, 2017] SATRip

salma3

317 | 71

9.88 ГБ

В этой теме нет новых непрочитанных сообщений. Кости [Серия 01-22 из 24] [Детектив, криминал, 2016] SATRip

Dracon

1 | 2

13.72 ГБ

В этой теме нет новых непрочитанных сообщений. Суфлер [01-04 из 04] [Детектив, криминал, экранизация, 2017] SATRip

salma3

318 | 33

2.24 ГБ


Начать новую тему Ответить на тему  [ 1 сообщение ] 




Для Мосгорсуда, Роскомнадзора и рекламодателей:: mosgorsud-torrent[собачка]yandex.ru