Торрент файл
скачать торрент магнет ссылка Добавлен: 03 июн 2014, 06:49
Размер: 8.16 ГБ
Сидеров: 5
Личеров: 3
Статус: (salma3)
Автор

СообщениеДобавлено: 03 июн 2014, 06:50 

Не в сети
Аватара пользователя
Дата регистрации:
26 ноя 2013, 12:32
Возраст: 57
Спасибо: 54 / 8
Сообщения: 66
Откуда: СССР
Год выпуска: 2013
Выпущено: Россия ,"Мостелефильм", ТК "Россия 1"
Жанр: Криминальный детектив
Перевод: Не требуется
Режисёр: Александр Хван
В ролях: Александр Домогаров, Евгения Крюкова, Виталий Кудрявцев, Сергей Комаров (II), Савва Гусев, Елена Доронина (IV), Яна Львова, Наталья Литвинова, Виктор Тереля, Дмитрий Смирнов (V), Артем Лысков, Виталий Горшков, Виктор Маркин (II), Олег Алмазов, Сергей Потапов (II), Юрий Шлыков...
О фильме: Вернувшись после победы с фронта оперативник МУРА Константин Трошин узнает, что там он больше не работает. А причина — в конфликте с влиятельным генералом НКГБ. Но Трошин не намерен отступать, так как без работы в органах жизнь его теряет всякий смысл. Он устраивается на работу в самом неблагополучном районе Москвы — Марьиной Роще. И там же из-зи личных проблем поселиться жить в коммуналке. Таким образом, Трошин оказался в самом центре криминальной среды. Он тесно сходится с ее обитателями. И, может быть, из-за этого ему удается раскрывать самые дерзкие и хладнокровные преступления. Убийства, налеты и аферы — здесь не в новинку. Но Трошин хочет идти дальше и искоренить преступление как таковое. А люди в ответ на его желание идут к нему, как третейскому судье, они доверяют ему, когда надо отделять добро от зла.
Сэмпл
Качество: DVDRip
Видео: 720x400 (1.80:1), 25 fps, XviD MPEG-4 ~1848 kbps avg, 0.26 bit/pixel
Аудио: 48 kHz, AC3 Dolby Digital, 2/0 (L,R) ch, ~192 kbps
Продолжительность: 16x~00:43:00
Общее
Полное имя : D:\Мои фильмы\Maryina_rowa_2012_01-16of16_XviD_DVDRip\Maryina.Rowa.01.DVDRip..avi
Формат : AVI
Формат/Информация : Audio Video Interleave
Размер файла : 522 Мбайт
Продолжительность : 44 м.
Общий поток : 1636 Кбит/сек
Библиотека кодирования : VirtualDub build 32842/release

Видео
Идентификатор : 0
Формат : MPEG-4 Visual
Профиль формата : Advanced Simple@L5
Параметр BVOP формата : 2
Параметр QPel формата : Нет
Параметр GMC формата : Без точки перехода
Параметр матрицы формата : Default (H.263)
Режим смешивания : Сжатый битовый поток
Идентификатор кодека : XVID
Идентификатор кодека/Подсказка : XviD
Продолжительность : 44 м.
Битрейт : 1434 Кбит/сек
Ширина : 720 пикселей
Высота : 400 пикселей
Соотношение сторон : 16:9
Частота кадров : 25,000 кадров/сек
Цветовое пространство : YUV
Субдискретизация насыщенности : 4:2:0
Битовая глубина : 8 бит
Тип развёртки : Прогрессивная
Метод сжатия : С потерями
Бит/(Пиксели*Кадры) : 0.199
Размер потока : 458 Мбайт (88%)
Библиотека кодирования : XviD 64

Аудио
Идентификатор : 1
Формат : AC-3
Формат/Информация : Audio Coding 3
Расширение режима : CM (complete main)
Параметр Endianness формата : Big
Идентификатор кодека : 2000
Продолжительность : 44 м.
Вид битрейта : Постоянный
Битрейт : 192 Кбит/сек
Каналы : 2 канала
Расположение каналов : Front: L R
Частота : 48,0 КГц
Битовая глубина : 16 бит
Метод сжатия : С потерями
Размер потока : 61,3 Мбайт (12%)
Выравнивание : Соединение по промежуткам
Продолжительность промежутка : 40 мс. (1,00 видеокадр)
Время предзагрузки промежутка : 512 мс.





реклама партнёра


Вернуться к началу
 Профиль Отправить личное сообщение  
 
   Похожие торренты   Автор   Торрент   Размер 
В этой теме нет новых непрочитанных сообщений. Убийство на пляже / Broadchurch [01-02х01-13 из 16] (Джеймс Стронг, Эрос Лин) [Психологический детектив, криминальный триллер, 2013-2015] WEB-DLRip, Mvo [Baibako]

Dracon

55 | 13

7.3 ГБ

В этой теме нет новых непрочитанных сообщений. Убийство на пляже / Broadchurch [S03] [детектив, криминальный триллер, 2017] WEB-DLRip, Mvo [BaibaKo]

salma3

162 | 152

4.52 ГБ

В этой теме нет новых непрочитанных сообщений. Особый случай [02x101-146] [Мистическая драма, криминальный детектив, 2014] HDTV 1080p

Dracon

4 | 7

117.45 ГБ

В этой теме нет новых непрочитанных сообщений. Курортная полиция [01-20 из 20] (Сергей Виноградов) [Детектив, криминальный фильм, 2014] HDTVRip 720p

Dracon

13 | 9

31.11 ГБ

В этой теме нет новых непрочитанных сообщений. Особый случай [03x001-008, 010-050] (Фёдор Петрухин) [Мистическая драма, криминальный детектив, 2015] HDTVRip

Dracon

10 | 5

26.2 ГБ

В этой теме нет новых непрочитанных сообщений. Внутреннее расследование [серии 1-11 из 16] (Вадим Саетгалиев) [Боевик, детектив, криминальный фильм, 2015] SatRip

Dracon

19 | 1

5.91 ГБ

В этой теме нет новых непрочитанных сообщений. Внутреннее расследование [серии 1-12 из 16] (Вадим Саетгалиев) [Боевик, детектив, криминальный фильм, 2015] SatRip

Dracon

0 | 0

6.45 ГБ


Начать новую тему Ответить на тему  [ 1 сообщение ] 




Для Мосгорсуда, Роскомнадзора и рекламодателей:: mosgorsud-torrent[собачка]yandex.ru