Торрент файл
скачать торрент магнет ссылка Добавлен: 01 июн 2014, 07:57
Размер: 4.34 ГБ
Сидеров: 0
Личеров: 4
Статус: (salma3)
Автор

СообщениеДобавлено: 01 июн 2014, 08:00 

Не в сети
Аватара пользователя
Дата регистрации:
26 ноя 2013, 12:32
Возраст: 57
Спасибо: 54 / 8
Сообщения: 66
Откуда: СССР
Год выпуска: 2014
Выпущено: Россия ,Марс Медия Энтертеймент
Жанр: Детектив, мелодрама
Перевод: Не требуется
Режисёр: Иван Шурховецкий
В ролях: Филипп Янковский, Елизавета Боярская, Константин Шелестун, Артур Ваха, Денис Синявский, Борис Хвошнянский, Алексей Барабаш, Виталий Коваленко, Иван Мудров, Артем Шилов, Петар Зекавица, Александр Петров, Вячеслав Гасай, Григорий Чабан, Никита Яковлев, Светлана Устинова, Полина Филоненко, Яков Шамшин, Артем Бордовский, Дмитрий Гирев, Михаил Сидаш, Дмитрий Лысенков
О фильме: Тимур и Рита – «охотники за головами». Рита ищет уникальных специалистов, Тимур – опасных преступников. Однажды их пути пересекутся: они одновременно выйдут на след гениального российского химика. Его изобретение – лекарство от рака, наркомафия планирует использовать как наркотик. Героям предстоит сделать непростой моральный выбор и оказаться по одну сторону баррикад.
Сэмпл
Качество: WEBRip
Видео: 720x400 (1.80:1), 25 fps, XviD MPEG-4 ~1848 kbps avg, 0.26 bit/pixel
Аудио: 48 kHz, AC3 Dolby Digital, 2/0 (L,R) ch, ~192 kbps
Продолжительность: 8 х ~ 00:45:00

Общее
Полное имя : D:\Мои фильмы\Ohotniki_za_golovami_1-8iz8_2014_XviD_WEBRip\Ohotniki_za_golovami_1_iz_8_2014_WEBRip.avi
Формат : AVI
Формат/Информация : Audio Video Interleave
Размер файла : 555 Мбайт
Продолжительность : 47 м.
Общий поток : 1651 Кбит/сек
Программа кодирования : VirtualDubMod 1.5.10.3 | http://www.virtualdub-fr.org || (build 2550/release)
Библиотека кодирования : VirtualDub build 35491/release

Видео
Идентификатор : 0
Формат : MPEG-4 Visual
Профиль формата : Advanced Simple@L5
Параметр BVOP формата : 2
Параметр QPel формата : Нет
Параметр GMC формата : Без точки перехода
Параметр матрицы формата : Default (H.263)
Режим смешивания : Сжатый битовый поток
Идентификатор кодека : XVID
Идентификатор кодека/Подсказка : XviD
Продолжительность : 47 м.
Битрейт : 1450 Кбит/сек
Ширина : 720 пикселей
Высота : 400 пикселей
Соотношение сторон : 16:9
Частота кадров : 25,000 кадров/сек
Цветовое пространство : YUV
Субдискретизация насыщенности : 4:2:0
Битовая глубина : 8 бит
Тип развёртки : Прогрессивная
Метод сжатия : С потерями
Бит/(Пиксели*Кадры) : 0.201
Размер потока : 488 Мбайт (88%)
Библиотека кодирования : XviD 65

Аудио
Идентификатор : 1
Формат : AC-3
Формат/Информация : Audio Coding 3
Расширение режима : CM (complete main)
Параметр Endianness формата : Big
Идентификатор кодека : 2000
Продолжительность : 47 м.
Вид битрейта : Постоянный
Битрейт : 192 Кбит/сек
Каналы : 2 канала
Расположение каналов : Front: L R
Частота : 44,1 КГц
Битовая глубина : 16 бит
Метод сжатия : С потерями
Размер потока : 64,4 Мбайт (12%)
Выравнивание : Соединение по промежуткам
Продолжительность промежутка : 40 мс. (1,00 видеокадр)
Время предзагрузки промежутка : 522 мс.





реклама партнёра


Вернуться к началу
 Профиль Отправить личное сообщение  
 
   Похожие торренты   Автор   Торрент   Размер 
В этой теме нет новых непрочитанных сообщений. Охотники за головами / Bounty Hunters [боевик, мелодрама, комедия, 2016] WEB-DL 720p, dvo

marya111

0 | 0

2.8 ГБ

В этой теме нет новых непрочитанных сообщений. Охотники за головами / Bounty Hunters (Боевик, мелодрама, комедия, 2016) BDRip от ExKinoRay | L

marya111

57 | 4

1.45 ГБ

В этой теме нет новых непрочитанных сообщений. Охотники за головами / Bounty Hunters [боевик, мелодрама, комедия, 2016] BDRemux 1080p, Mvo

salma3

87 | 40

18.52 ГБ

В этой теме нет новых непрочитанных сообщений. Охотники за головами / Hodejegerne [триллер, драма, криминал, 2011] HDRip-AVC, Dub

salma3

24 | 2

745.05 МБ

В этой теме нет новых непрочитанных сообщений. Охотники за головами / Hodejegerne [боевик, триллер, криминал, 2011] BDRip 1080p, Dub

salma3

53 | 16

4.37 ГБ

В этой теме нет новых непрочитанных сообщений. Охотники за головами / Hodejegerne [Триллер, криминал, боевик, 2011] BDRip 720p, Dub [лицензия]

salma3

71 | 5

2.19 ГБ

В этой теме нет новых непрочитанных сообщений. Охотник за головами [01-12 из 12] (Игорь Москвитин, Сергей Малюгов) [Детектив, 2015] SATRip

Dracon

3903 | 774

7.03 ГБ


Начать новую тему Ответить на тему  [ 1 сообщение ] 




Для Мосгорсуда, Роскомнадзора и рекламодателей:: mosgorsud-torrent[собачка]yandex.ru