Торрент файл
скачать торрент магнет ссылка Добавлен: 01 июн 2014, 07:30
Размер: 17.35 ГБ
Сидеров: 0
Личеров: 2
Статус: (salma3)
Автор

СообщениеДобавлено: 01 июн 2014, 07:41 

Не в сети
Аватара пользователя
Дата регистрации:
26 ноя 2013, 12:32
Возраст: 56
Спасибо: 52 / 7
Сообщения: 66
Откуда: СССР
Год выпуска: 2014
Выпущено: Россия ,ООО "Триикс Медиа" по заказу ОАО "Телекомпания НТВ"
Жанр: Детектив,криминал
Перевод: Не требуется
Режисёр: Виктор Татарский, Андрей Иванов
В ролях: Борис Галкин, Андрей Кузнецов, Александр Мосолов, Роман Агеев, Александр Большаков, Полина Воробьёва, Игорь Вуколов, Ольга Калмыкова, Валерий Кухарешин, Валерий Ошомков, Екатерина Решетникова, Геннадий Свирь, Павел Харизанов, Антон Чернов, Степан Бекетов, Александр Глебов, Вадим Романов, Роман Павлушев, Игорь Головин, Эрик Кения, Марианна Коробейникова, Зоя Буряк, Александр Ронис, Арина Лыкова, Михаил Володин, Данила Калабин, Олег Алмазов, Сергей Малюгов, Дмитрий Поддубный, Александр Петров, Тимофей Будкевич, Борис Драгилев, Алексей Одинг, Денис Кириллов, Игорь Лепихин, Герасим Архипов
О фильме: Экипаж Лукина, Сергеева и Дуброва, так же, как и в первом сезоне, работает «в поле» — в городе, где ежедневно происходят правонарушения разной степени опасности. Полицейские сталкиваются с бытовыми драками, убийствами, семейными разборками, с наркоманами и наркодилерами, квартирными ворами-домушниками, угонщиками машин, уличными хулиганами, пьяными, бомжами — в общем всем тем, что называется «изнанкой большого города». В коллективе появляется новое лицо — Константин Шансов — опер, работающий в отделе вместе со Слоновым и Мурашовым. Помимо мелких хулиганов и районных наркоторговцев у героев появляется серьёзный противник в лице бизнесмена Ильина, человека с криминальным прошлым.
Сэмпл
Качество: SATRip
Видео: 720x400 (1.80:1), 25 fps, XviD MPEG-4 ~1848 kbps avg, 0.26 bit/pixel
Аудио: 48 kHz, AC3 Dolby Digital, 2/0 (L,R) ch, ~192 kbps
Продолжительность: 32 x ~ 00:44:42
Общее
Полное имя : D:\Мои фильмы\PPS_S2_01-32iz32_2014_XviD_SATRip\PPS_S2_01_iz_32_2014_SATRip.avi
Формат : AVI
Формат/Информация : Audio Video Interleave
Размер файла : 555 Мбайт
Продолжительность : 43 м.
Общий поток : 1795 Кбит/сек
Программа кодирования : VirtualDubMod 1.5.10.3 | http://www.virtualdub-fr.org || (build 2550/release)
Библиотека кодирования : VirtualDub build 35491/release

Видео
Идентификатор : 0
Формат : MPEG-4 Visual
Профиль формата : Advanced Simple@L5
Параметр BVOP формата : 2
Параметр QPel формата : Нет
Параметр GMC формата : Без точки перехода
Параметр матрицы формата : Default (H.263)
Режим смешивания : Сжатый битовый поток
Идентификатор кодека : XVID
Идентификатор кодека/Подсказка : XviD
Продолжительность : 43 м.
Битрейт : 1593 Кбит/сек
Ширина : 720 пикселей
Высота : 400 пикселей
Соотношение сторон : 16:9
Частота кадров : 25,000 кадров/сек
Цветовое пространство : YUV
Субдискретизация насыщенности : 4:2:0
Битовая глубина : 8 бит
Тип развёртки : Прогрессивная
Метод сжатия : С потерями
Бит/(Пиксели*Кадры) : 0.221
Размер потока : 493 Мбайт (89%)
Библиотека кодирования : XviD 65

Аудио
Идентификатор : 1
Формат : AC-3
Формат/Информация : Audio Coding 3
Расширение режима : CM (complete main)
Параметр Endianness формата : Big
Идентификатор кодека : 2000
Продолжительность : 43 м.
Вид битрейта : Постоянный
Битрейт : 192 Кбит/сек
Каналы : 2 канала
Расположение каналов : Front: L R
Частота : 48,0 КГц
Битовая глубина : 16 бит
Метод сжатия : С потерями
Размер потока : 59,4 Мбайт (11%)
Выравнивание : Соединение по промежуткам
Продолжительность промежутка : 40 мс. (1,00 видеокадр)
Время предзагрузки промежутка : 512 мс.





реклама партнёра


Вернуться к началу
 Профиль Отправить личное сообщение  
 
   Похожие торренты   Автор   Торрент   Размер 
В этой теме нет новых непрочитанных сообщений. ППС / Патрульно-постовая служба [24 из 24] [Криминал, детектив, 2011] SATRip

iopuk60

0 | 3

13.02 ГБ

В этой теме нет новых непрочитанных сообщений. Kingsman: Секретная служба / Kingsman: The Secret Service (Мэттью Вон) [боевик, комедия, криминал, приключения, 2014] WEB-DLRip, Dub [iTunes]

Dracon

4 | 0

1.46 ГБ

В этой теме нет новых непрочитанных сообщений. Kingsman: Секретная служба / Kingsman: The Secret Service (Мэттью Вон) [боевик, комедия, криминал, приключения, 2014] WEB-DL 1080p, Dub [iTunes]

Dracon

7084 | 59

4.63 ГБ

В этой теме нет новых непрочитанных сообщений. Kingsman: Секретная служба / Kingsman: The Secret Service (Мэттью Вон) [боевик, комедия, криминал, приключения, 2014] HDRip, Dub [iTunes]

Dracon

11 | 0

2.06 ГБ

В этой теме нет новых непрочитанных сообщений. Kingsman: Секретная служба / Kingsman: The Secret Service (Мэттью Вон) [боевик, комедия, криминал, приключения, 2014] HDRip, Dub [iTunes]

Dracon

1 | 0

1.37 ГБ

В этой теме нет новых непрочитанных сообщений. Kingsman: Секретная служба / Kingsman: The Secret Service (Мэттью Вон) [боевик, комедия, криминал, приключения, 2014] HDRip, Dub [Лицензия]

Dracon

11 | 0

1.46 ГБ

В этой теме нет новых непрочитанных сообщений. Kingsman: Секретная служба / Kingsman: The Secret Service (Мэттью Вон) [боевик, комедия, криминал, приключения, 2014] Blu-Ray 1080p, Dub+Sub [Лицензия]

Dracon

70 | 22

44.75 ГБ


Начать новую тему Ответить на тему  [ 1 сообщение ] 




Для Мосгорсуда, Роскомнадзора и рекламодателей:: mosgorsud-torrent[собачка]yandex.ru