Торрент файл
скачать торрент магнет ссылка Добавлен: 31 май 2014, 07:27
Размер: 4.34 ГБ
Сидеров: 0
Личеров: 4
Статус: (salma3)
Автор

СообщениеДобавлено: 31 май 2014, 07:29 

Не в сети
Аватара пользователя
Дата регистрации:
26 ноя 2013, 12:32
Возраст: 56
Спасибо: 52 / 7
Сообщения: 66
Откуда: СССР
Год выпуска: 2013
Выпущено: Россия ,Беларусь ,ООО "Форум"
Жанр: Детектив,криминал
Перевод: Не требуется
Режисёр: Вячеслав Никифоров
В ролях: Кирилл Плетнёв, Родион Нахапетов, Дмитрий Исаев, Агния Дитковските, Антон Пампушный, Денис Бургазлиев, Анна Казючиц, Татьяна Казючиц
О фильме: В районе, который курирует майор Началов, действует подпольная лаборатория по производству метамфетамина. От "паленого" наркотика умирают люди. Курсанты высшего учебного заведения МВД - Харламов, Кречетов, Царев и Ушаков заканчивают обучение, осталось несколько дней до диплома. У Жени Кречетова – бурный роман с дочерью Началова, Надеждой. Курсант Харламов допускает конфликт с руководством, в результате чего оказывается под угрозой отчисления. Майор Началов на свой страх и риск берет курсантов к себе в новый отдел, убивая двух зайцев – спасает парней от неприятностей и получает новых, не засвеченных и не коррумпированных работников.
Сэмпл
Качество: SATRip
Видео: 720x400 (1.80:1), 25 fps, XviD MPEG-4 ~1848 kbps avg, 0.26 bit/pixel
Аудио: 48 kHz, AC3 Dolby Digital, 2/0 (L,R) ch, ~192 kbps
Продолжительность: 8 х ~ 00:45:00
Общее
Полное имя : D:\Мои фильмы\Kljanjomsja_zawiwat'_1-8iz8_2014_XviD_SATRip\Kljanjomsja_zawiwat'_1_iz_8_2014_SATRip.avi
Формат : AVI
Формат/Информация : Audio Video Interleave
Размер файла : 555 Мбайт
Продолжительность : 40 м.
Общий поток : 1919 Кбит/сек
Программа кодирования : VirtualDubMod 1.5.10.3 | http://www.virtualdub-fr.org || (build 2550/release)
Библиотека кодирования : VirtualDub build 35491/release

Видео
Идентификатор : 0
Формат : MPEG-4 Visual
Профиль формата : Advanced Simple@L5
Параметр BVOP формата : 2
Параметр QPel формата : Нет
Параметр GMC формата : Без точки перехода
Параметр матрицы формата : Default (H.263)
Режим смешивания : Сжатый битовый поток
Идентификатор кодека : XVID
Идентификатор кодека/Подсказка : XviD
Продолжительность : 40 м.
Битрейт : 1717 Кбит/сек
Ширина : 720 пикселей
Высота : 400 пикселей
Соотношение сторон : 16:9
Частота кадров : 25,000 кадров/сек
Цветовое пространство : YUV
Субдискретизация насыщенности : 4:2:0
Битовая глубина : 8 бит
Тип развёртки : Прогрессивная
Метод сжатия : С потерями
Бит/(Пиксели*Кадры) : 0.238
Размер потока : 497 Мбайт (89%)
Библиотека кодирования : XviD 64

Аудио
Идентификатор : 1
Формат : AC-3
Формат/Информация : Audio Coding 3
Расширение режима : CM (complete main)
Параметр Endianness формата : Big
Идентификатор кодека : 2000
Продолжительность : 40 м.
Вид битрейта : Постоянный
Битрейт : 192 Кбит/сек
Каналы : 2 канала
Расположение каналов : Front: L R
Частота : 48,0 КГц
Битовая глубина : 16 бит
Метод сжатия : С потерями
Размер потока : 55,6 Мбайт (10%)
Выравнивание : Соединение по промежуткам
Продолжительность промежутка : 40 мс. (1,00 видеокадр)
Время предзагрузки промежутка : 512 мс.





реклама партнёра


Вернуться к началу
 Профиль Отправить личное сообщение  
 
   Похожие торренты   Автор   Торрент   Размер 
В этой теме нет новых непрочитанных сообщений. Клянёмся защищать [8 из 8] [Детектив, криминал, 2014] WEBRip

iopuk60

1 | 3

4.34 ГБ

В этой теме нет новых непрочитанных сообщений. Шеф-2 [32 из 32] [Детектив, криминал, 2013] SATRip

iopuk60

0 | 2

17.36 ГБ

В этой теме нет новых непрочитанных сообщений. Сёмин. Возмездие [16 из 16] [Детектив, криминал,2013] SATRip

iopuk60

0 | 2

8.68 ГБ

В этой теме нет новых непрочитанных сообщений. Дело врачей [01-68] [Криминал, детектив, 2013] SATRip

Ανδρέας

0 | 2

33.34 ГБ

В этой теме нет новых непрочитанных сообщений. Паутина-7 [01-24 из 24] [Детектив, криминал, 2013-2014] SATRip

Dracon

6 | 3

12.91 ГБ

В этой теме нет новых непрочитанных сообщений. Двойной блюз [4 из 4] [Детектив, криминал, 2013] SATRip

iopuk60

0 | 3

2.17 ГБ

В этой теме нет новых непрочитанных сообщений. Гончие-6 [1-8 серия из 8] [детектив, криминал, 2013] SATRip

Dracon

0 | 3

4.03 ГБ


Начать новую тему Ответить на тему  [ 1 сообщение ] 




Для Мосгорсуда, Роскомнадзора и рекламодателей:: mosgorsud-torrent[собачка]yandex.ru