Торрент файл
скачать торрент магнет ссылка Добавлен: 31 май 2014, 07:27
Размер: 4.34 ГБ
Сидеров: 0
Личеров: 4
Статус: (salma3)
Автор

СообщениеДобавлено: 31 май 2014, 07:29 

Не в сети
Аватара пользователя
Дата регистрации:
26 ноя 2013, 12:32
Возраст: 57
Спасибо: 53 / 8
Сообщения: 66
Откуда: СССР
Год выпуска: 2013
Выпущено: Россия ,Беларусь ,ООО "Форум"
Жанр: Детектив,криминал
Перевод: Не требуется
Режисёр: Вячеслав Никифоров
В ролях: Кирилл Плетнёв, Родион Нахапетов, Дмитрий Исаев, Агния Дитковските, Антон Пампушный, Денис Бургазлиев, Анна Казючиц, Татьяна Казючиц
О фильме: В районе, который курирует майор Началов, действует подпольная лаборатория по производству метамфетамина. От "паленого" наркотика умирают люди. Курсанты высшего учебного заведения МВД - Харламов, Кречетов, Царев и Ушаков заканчивают обучение, осталось несколько дней до диплома. У Жени Кречетова – бурный роман с дочерью Началова, Надеждой. Курсант Харламов допускает конфликт с руководством, в результате чего оказывается под угрозой отчисления. Майор Началов на свой страх и риск берет курсантов к себе в новый отдел, убивая двух зайцев – спасает парней от неприятностей и получает новых, не засвеченных и не коррумпированных работников.
Сэмпл
Качество: SATRip
Видео: 720x400 (1.80:1), 25 fps, XviD MPEG-4 ~1848 kbps avg, 0.26 bit/pixel
Аудио: 48 kHz, AC3 Dolby Digital, 2/0 (L,R) ch, ~192 kbps
Продолжительность: 8 х ~ 00:45:00
Общее
Полное имя : D:\Мои фильмы\Kljanjomsja_zawiwat'_1-8iz8_2014_XviD_SATRip\Kljanjomsja_zawiwat'_1_iz_8_2014_SATRip.avi
Формат : AVI
Формат/Информация : Audio Video Interleave
Размер файла : 555 Мбайт
Продолжительность : 40 м.
Общий поток : 1919 Кбит/сек
Программа кодирования : VirtualDubMod 1.5.10.3 | http://www.virtualdub-fr.org || (build 2550/release)
Библиотека кодирования : VirtualDub build 35491/release

Видео
Идентификатор : 0
Формат : MPEG-4 Visual
Профиль формата : Advanced Simple@L5
Параметр BVOP формата : 2
Параметр QPel формата : Нет
Параметр GMC формата : Без точки перехода
Параметр матрицы формата : Default (H.263)
Режим смешивания : Сжатый битовый поток
Идентификатор кодека : XVID
Идентификатор кодека/Подсказка : XviD
Продолжительность : 40 м.
Битрейт : 1717 Кбит/сек
Ширина : 720 пикселей
Высота : 400 пикселей
Соотношение сторон : 16:9
Частота кадров : 25,000 кадров/сек
Цветовое пространство : YUV
Субдискретизация насыщенности : 4:2:0
Битовая глубина : 8 бит
Тип развёртки : Прогрессивная
Метод сжатия : С потерями
Бит/(Пиксели*Кадры) : 0.238
Размер потока : 497 Мбайт (89%)
Библиотека кодирования : XviD 64

Аудио
Идентификатор : 1
Формат : AC-3
Формат/Информация : Audio Coding 3
Расширение режима : CM (complete main)
Параметр Endianness формата : Big
Идентификатор кодека : 2000
Продолжительность : 40 м.
Вид битрейта : Постоянный
Битрейт : 192 Кбит/сек
Каналы : 2 канала
Расположение каналов : Front: L R
Частота : 48,0 КГц
Битовая глубина : 16 бит
Метод сжатия : С потерями
Размер потока : 55,6 Мбайт (10%)
Выравнивание : Соединение по промежуткам
Продолжительность промежутка : 40 мс. (1,00 видеокадр)
Время предзагрузки промежутка : 512 мс.





реклама партнёра


Вернуться к началу
 Профиль Отправить личное сообщение  
 
   Похожие торренты   Автор   Торрент   Размер 
В этой теме нет новых непрочитанных сообщений. Служить и защищать / Proteger & Servir [Комедия, криминал, 2010] DVDRip-AVC, Mvo

salma3

62 | 18

1.45 ГБ

В этой теме нет новых непрочитанных сообщений. Государственная защита-3 [01-16 из 16] [2013 г., Детектив, криминал] SATRip

iopuk60

2 | 2

8.67 ГБ

В этой теме нет новых непрочитанных сообщений. Литейный 4 [08х01-30 из 30] [Детектив, криминал, 2013] SATRip

Dracon

51 | 26

18 ГБ

В этой теме нет новых непрочитанных сообщений. Леди-детектив мисс Фрайни Фишер / Miss Fisher's Murder Mysteries [S01-02] [драма, криминал, детектив, 2012-2013] DVDRip, HDRip, Mvo

salma3

151 | 102

15.92 ГБ

В этой теме нет новых непрочитанных сообщений. Уик-Энд / Weekend [Драма, детектив, криминал, 2013] WEB-DLRip

Dracon

95 | 45

1.46 ГБ

В этой теме нет новых непрочитанных сообщений. Схватка [01-04 из 04] [Детектив, 2013] SATRip

Dracon

501 | 16

2.28 ГБ

В этой теме нет новых непрочитанных сообщений. Ментовские войны 7 [01-24 из 24] [Боевик, детектив, криминал, 2013] WEBRip

iopuk60

2 | 3

13.02 ГБ


Начать новую тему Ответить на тему  [ 1 сообщение ] 




Для Мосгорсуда, Роскомнадзора и рекламодателей:: mosgorsud-torrent[собачка]yandex.ru
cron