Торрент файл
скачать торрент магнет ссылка Добавлен: 22 окт 2014, 08:11
Размер: 8.68 ГБ
Сидеров: 4
Личеров: 2
Автор

СообщениеДобавлено: 31 май 2014, 07:12 

Не в сети
Аватара пользователя
Дата регистрации:
26 ноя 2013, 12:32
Возраст: 56
Спасибо: 52 / 7
Сообщения: 66
Откуда: СССР
Год выпуска: 2013
Выпущено: Россия ,Кинокомпания DT Production
Жанр: Иронический детектив
Перевод: Не требуется
Режисёр: Владимир Мельник (II)
В ролях: Константин Юшкевич, Вадим Андреев, Гоша Куценко, Оксана Сташенко, Вадим Дорофеев, Мария Пирогова, Александр Самойлов, Инга Оболдина, Ирина Низина, Иван Агапов, Карина Разумовская, Алексей Михайлов (II), Тимур Ефременков, Александр Числов, Виктор Конухин, Влад Канопка, Дмитрий Мазуров, Игорь Старосельцев, Дмитрий Блажко, Ольга Дибцева
О фильме:Каждые две серии иронического детектива «Одинокий волк Саня» – отдельная история, в которой бравый провинциальный опер, «одинокий волк» с несерьезным именем Саня, распутывает безнадежные на взгляд его коллег преступления. Детективная составляющая – основа каждой истории, но внутри сюжета – столкновение характеров героев, их семейные дела, изменения, которые происходят с каждым из них по ходу действия. Зрители увидят, как мужает и превращается из наивного и избалованного юнца в настоящего профессионала стажер Карандышев по прозвищу Кузнечик; как в своих чувствах к бывшей жене разбирается сам Саня; как любовь и внимание отца пытается завоевать дочь опера Маша.
Сэмпл
Качество: HDTVRip
Видео: 720x400 (1.80:1), 25 fps, XviD MPEG-4 ~1848 kbps avg, 0.26 bit/pixel
Аудио: 48 kHz, AC3 Dolby Digital, 2/0 (L,R) ch, ~192 kbps
Продолжительность: 16 х ~ 00:49:00
Общее
Полное имя : D:\Мои фильмы\Balabol_Odinokij_volk_Sanja_01-16iz16_2013_XviD_HDTVRip\Balabol_Odinokij_volk_Sanja_01_iz_16_2013_HDTVRip.avi
Формат : AVI
Формат/Информация : Audio Video Interleave
Размер файла : 556 Мбайт
Продолжительность : 49 м.
Общий поток : 1579 Кбит/сек
Библиотека кодирования : VirtualDub build 35491/release

Видео
Идентификатор : 0
Формат : MPEG-4 Visual
Профиль формата : Advanced Simple@L5
Параметр BVOP формата : 2
Параметр QPel формата : Нет
Параметр GMC формата : Без точки перехода
Параметр матрицы формата : Default (H.263)
Режим смешивания : Сжатый битовый поток
Идентификатор кодека : XVID
Идентификатор кодека/Подсказка : XviD
Продолжительность : 49 м.
Битрейт : 1377 Кбит/сек
Ширина : 720 пикселей
Высота : 400 пикселей
Соотношение сторон : 16:9
Частота кадров : 25,000 кадров/сек
Цветовое пространство : YUV
Субдискретизация насыщенности : 4:2:0
Битовая глубина : 8 бит
Тип развёртки : Прогрессивная
Метод сжатия : С потерями
Бит/(Пиксели*Кадры) : 0.191
Размер потока : 485 Мбайт (87%)
Библиотека кодирования : XviD 65

Аудио
Идентификатор : 1
Формат : AC-3
Формат/Информация : Audio Coding 3
Расширение режима : CM (complete main)
Параметр Endianness формата : Big
Идентификатор кодека : 2000
Продолжительность : 49 м.
Вид битрейта : Постоянный
Битрейт : 192 Кбит/сек
Каналы : 2 канала
Расположение каналов : Front: L R
Частота : 48,0 КГц
Битовая глубина : 16 бит
Метод сжатия : С потерями
Размер потока : 67,6 Мбайт (12%)
Выравнивание : Соединение по промежуткам
Продолжительность промежутка : 40 мс. (1,00 видеокадр)
Время предзагрузки промежутка : 512 мс.





реклама партнёра


Вернуться к началу
 Профиль Отправить личное сообщение  
 
   Похожие торренты   Автор   Торрент   Размер 
В этой теме нет новых непрочитанных сообщений. Одинокий волк МакКуэйд / Lone Wolf McQuade [Боевик, 1983] BDRip 1080p, Mvo

salma3

67 | 50

12.06 ГБ

В этой теме нет новых непрочитанных сообщений. Одинокий волк МакКуэйд / Lone Wolf McQuade [боевик, драма, криминал, 1983] BDRip 720р, Mvo+Sub

salma3

21 | 6

7.99 ГБ

В этой теме нет новых непрочитанных сообщений. Воздушный волк / Небесный волк / Airwolf [S01-03] [Боевик, приключения, 1984-1986] BDRip, Mvo

salma3

17 | 26

40.42 ГБ

В этой теме нет новых непрочитанных сообщений. Воздушный волк / Небесный волк / Airwolf [S01-03] [Боевик, приключения, 1984-1986] BDRip 720p, Mvo

salma3

4 | 12

124.54 ГБ

В этой теме нет новых непрочитанных сообщений. Одинокий рейнджер / The Lone Ranger [Приключения, фантастика, вестерн, боевик, 2013] HDRip 520p, Dub [Лицензия]

Dracon

13 | 3

3.54 ГБ

В этой теме нет новых непрочитанных сообщений. Дракон-волк / Dragonwolf [боевик, 2013] HDRip-AVC, Mvo [НТВ+]

salma3

17 | 2

1.54 ГБ

В этой теме нет новых непрочитанных сообщений. Дракон-волк / Dragonwolf [боевик, 2013] HDRip, Mvo [НТВ+]

salma3

101 | 3

1.46 ГБ


Начать новую тему Ответить на тему  [ 1 сообщение ] 




Для Мосгорсуда, Роскомнадзора и рекламодателей:: mosgorsud-torrent[собачка]yandex.ru