Торрент файл
скачать торрент магнет ссылка Добавлен: 30 май 2014, 14:59
Размер: 4.34 ГБ
Сидеров: 0
Личеров: 3
Статус: (salma3)
Автор

СообщениеДобавлено: 30 май 2014, 15:00 

Не в сети
Аватара пользователя
Дата регистрации:
26 ноя 2013, 12:32
Возраст: 56
Спасибо: 52 / 7
Сообщения: 66
Откуда: СССР
Год выпуска: 2013
Выпущено: Россия ,кинокомпания DT-Production
Жанр: Детектив,криминал
Перевод: Не требуется
Режисёр: Эльдар Салаватов
В ролях: Виктор Вержбицкий, Артём Ткаченко, Анастасия Макеева, Даниил Страхов, Александр Хващинский, Светлана Нехороших, Маргарита Бугаева, Павел Шингарёв, Анна Попова, Константин Самоуков, Николай Иванов (III), Екатерина Зонненштраль
О фильме: Журналист и фотограф Алексей Говорков, под псевдонимом Цезарь, разоблачает в Интернете факты полицейского и чиновничьего произвола. Будучи достаточно известным в сети, Говорков придает широкой огласке очередной случай, невольным свидетелем которого он оказывается. Полицейское начальство, в надежде обелить честь мундира, принимает неожиданное решение: включить Цезаря в следственную группу в качестве наблюдателя, чтобы тот показывал деятельность полиции изнутри. Подкидывая группе только самые простые и очевидные дела, в МВД не подозревали, что под острым взглядом фотографа очевидные, казалось бы, расследования открываются с неожиданных сторон. Из-за постоянного вмешательства Говоркова в расследования, его отношения с полицейскими становятся все более натянутыми. Кроме того, один из участников группы подозревает журналиста в причастности к ряду преступлений...
Сэмпл
Качество: WEBRip
Видео: 720x384 (1.80:1), 25 fps, XviD MPEG-4 ~1848 kbps avg, 0.26 bit/pixel
Аудио: 48 kHz, AC3 Dolby Digital, 2/0 (L,R) ch, ~192 kbps
Продолжительность: 8 x ~ 00:51:00
Общее
Полное имя : D:\Мои фильмы\Cezar'_1-8iz8_2013_XviD_WEBRip\Cezar'_1_iz_8_2013_WEBRip.avi
Формат : AVI
Формат/Информация : Audio Video Interleave
Размер файла : 555 Мбайт
Продолжительность : 49 м.
Общий поток : 1584 Кбит/сек
Программа кодирования : VirtualDubMod 1.5.10.3 | http://www.virtualdub-fr.org || (build 2550/release)
Библиотека кодирования : VirtualDub build 35491/release

Видео
Идентификатор : 0
Формат : MPEG-4 Visual
Профиль формата : Advanced Simple@L5
Параметр BVOP формата : 2
Параметр QPel формата : Нет
Параметр GMC формата : Без точки перехода
Параметр матрицы формата : Default (H.263)
Режим смешивания : Сжатый битовый поток
Идентификатор кодека : XVID
Идентификатор кодека/Подсказка : XviD
Продолжительность : 49 м.
Битрейт : 1382 Кбит/сек
Ширина : 720 пикселей
Высота : 384 пикселя
Соотношение сторон : 1,85:1
Частота кадров : 25,000 кадров/сек
Цветовое пространство : YUV
Субдискретизация насыщенности : 4:2:0
Битовая глубина : 8 бит
Тип развёртки : Прогрессивная
Метод сжатия : С потерями
Бит/(Пиксели*Кадры) : 0.200
Размер потока : 485 Мбайт (87%)
Библиотека кодирования : XviD 65

Аудио
Идентификатор : 1
Формат : AC-3
Формат/Информация : Audio Coding 3
Расширение режима : CM (complete main)
Параметр Endianness формата : Big
Идентификатор кодека : 2000
Продолжительность : 49 м.
Вид битрейта : Постоянный
Битрейт : 192 Кбит/сек
Каналы : 2 канала
Расположение каналов : Front: L R
Частота : 48,0 КГц
Битовая глубина : 16 бит
Метод сжатия : С потерями
Размер потока : 67,3 Мбайт (12%)
Выравнивание : Соединение по промежуткам
Продолжительность промежутка : 40 мс. (1,00 видеокадр)
Время предзагрузки промежутка : 512 мс.





реклама партнёра


Вернуться к началу
 Профиль Отправить личное сообщение  
 
   Похожие торренты   Автор   Торрент   Размер 
В этой теме нет новых непрочитанных сообщений. Да здравствует Цезарь! / Hail, Caesar! (Итан Коэн, Джоэл Коэн / Ethan Coen, Joel Coen) [2016 г., Великобритания, комедия, детектив, WEBRip] Dub

Alfredovich

0 | 0

741.17 МБ

В этой теме нет новых непрочитанных сообщений. Ментовские войны 7 [01-24 из 24] [Боевик, детектив, криминал, 2013] WEBRip

iopuk60

2 | 2

13.02 ГБ

В этой теме нет новых непрочитанных сообщений. Клянёмся защищать [8 из 8] [Детектив, криминал, 2014] WEBRip

iopuk60

1 | 3

4.34 ГБ

В этой теме нет новых непрочитанных сообщений. Так далеко, так близко [8 из 8] [Детектив, криминал,2014] WEBRip

iopuk60

1 | 3

4.34 ГБ

В этой теме нет новых непрочитанных сообщений. Тихая охота [01-30 из 30] [Детектив, криминал.2014] WEBRip

iopuk60

3 | 2

13.05 ГБ

В этой теме нет новых непрочитанных сообщений. Скорпион на ладони [Мелодрама, детектив, 2013] WEBRip

Dracon

162 | 9

1.37 ГБ

В этой теме нет новых непрочитанных сообщений. Оборотень / Wer [Ужасы, триллер, детектив, 2013] WEBRip, avo

Dracon

233 | 10

1.06 ГБ


Начать новую тему Ответить на тему  [ 1 сообщение ] 




Для Мосгорсуда, Роскомнадзора и рекламодателей:: mosgorsud-torrent[собачка]yandex.ru