Торрент файл
скачать торрент магнет ссылка Добавлен: 28 май 2014, 14:02
Размер: 8.67 ГБ
Сидеров: 1
Личеров: 2
Статус: (salma3)
Автор

СообщениеДобавлено: 28 май 2014, 14:06 

Не в сети
Аватара пользователя
Дата регистрации:
26 ноя 2013, 12:32
Возраст: 56
Спасибо: 52 / 7
Сообщения: 66
Откуда: СССР
Год выпуска: 2012
Выпущено: Россия ,Мотор Фильм Студия
Жанр: Детектив,криминал
Перевод: Не требуется
Режиссер: Илья Максимов
В ролях: Мария Порошина, Вячеслав Разбегаев, Владимир Епифанцев, Илья Древнов, Елена Полянская, Павел Попов, Александр Стёпин, Артём Грот, Елена Лопаткина, Алексей Шаранин, Лидия Арефьева, Анастасия Привалова, Валерий Кудашкин, Денис Дружинин, Маргарита Иванова-Донская, Алексей Долгушин, Анастасия Сова-Егорова
О фильме: Главные герои сериала, Суворова и Шульгин, любят друг друга и собираются объявить всем о своих отношениях. Но возникает неожиданное препятствие — Шульгин получает известие, что женщина по имени Елена, которую он когда-то любил и считал трагически погибшей по его вине, жива. Шульгин пытается её разыскать, для него это очень важно — его мучило чувство вины за ее смерть. Не разобравшись со своим прошлым, Шульгин не может строить отношения с Суворовой. Кроме того, Елена — ключевой свидетель в давнем незаконченном деле об убийстве. Шульгин не посвящает Суворову в свое расследование, считает это дело слишком личным. И когда Суворова узнаёт о происходящем, ее это сильно задевает. Она вдруг понимает, что совсем ничего не знает про Шульгина: кто он, откуда, каким он был до неё? Они отдаляются друг от друга. Суворова начинает своё параллельное расследование, надеясь тем самым помочь Шульгину и выяснить что-то для себя. На этом пути они встречают множество преград, их любовь трещит по швам, но, тем не менее, они постепенно, шаг за шагом, узнают друг друга.
Сэмпл
Качество: SATRip
Видео: 720x400 (1.80:1), 25 fps, XviD MPEG-4 ~1311 kbps avg, 0.18 bit/pixel
Аудио: 48 kHz, AC3 Dolby Digital, 2/0 (L,R) ch, ~192 kbps
Продолжительность: 16 x ~ 00:45:00
Общее
Полное имя : D:\Мои фильмы\Po_gorjachim_sledam_S2_01-16iz16_2012_XviD_SATRip\Po_gorjachim_sledam_S2_01_iz_16_2012_SATRip.avi
Формат : AVI
Формат/Информация : Audio Video Interleave
Размер файла : 555 Мбайт
Продолжительность : 44 м.
Общий поток : 1759 Кбит/сек
Программа кодирования : VirtualDubMod 1.5.10.3 (build 2550/release)
Библиотека кодирования : VirtualDub build 35491/release
Видео
Идентификатор : 0
Формат : MPEG-4 Visual
Профиль формата : Advanced Simple@L5
Параметр BVOP формата : 2
Параметр QPel формата : Нет
Параметр GMC формата : Без точки перехода
Параметр матрицы формата : Default (H.263)
Режим смешивания : Сжатый битовый поток
Идентификатор кодека : XVID
Идентификатор кодека/Подсказка : XviD
Продолжительность : 44 м.
Битрейт : 1557 Кбит/сек
Ширина : 720 пикселей
Высота : 400 пикселей
Соотношение сторон : 16:9
Частота кадров : 25,000 кадров/сек
Цветовое пространство : YUV
Субдискретизация насыщенности : 4:2:0
Битовая глубина : 8 бит
Тип развёртки : Прогрессивная
Метод сжатия : С потерями
Бит/(Пиксели*Кадры) : 0.216
Размер потока : 492 Мбайт (89%)
Библиотека кодирования : XviD 65
Аудио
Идентификатор : 1
Формат : AC-3
Формат/Информация : Audio Coding 3
Расширение режима : CM (complete main)
Параметр Endianness формата : Big
Идентификатор кодека : 2000
Продолжительность : 44 м.
Вид битрейта : Постоянный
Битрейт : 192 Кбит/сек
Каналы : 2 канала
Расположение каналов : Front: L R
Частота : 48,0 КГц
Битовая глубина : 16 бит
Метод сжатия : С потерями
Размер потока : 60,6 Мбайт (11%)
Выравнивание : Соединение по промежуткам
Продолжительность промежутка : 40 мс. (1,00 видеокадр)
Время предзагрузки промежутка : 512 мс.




реклама партнёра


Вернуться к началу
 Профиль Отправить личное сообщение  
 
   Похожие торренты   Автор   Торрент   Размер 
В этой теме нет новых непрочитанных сообщений. Футбол. Чемпионат России 2016-17. 16-й тур. По горячим следам. 1-й день [30.11] (2016) WEB-DLRip 720p

salma3

11 | 2

1.17 ГБ

В этой теме нет новых непрочитанных сообщений. Шеф [24 из 24] [Детектив, криминал, 2012] SATRip

iopuk60

0 | 2

13.02 ГБ

В этой теме нет новых непрочитанных сообщений. Дознаватель [24 из 24] [Детектив, криминал, 2012] SATRip

iopuk60

0 | 2

13.03 ГБ

В этой теме нет новых непрочитанных сообщений. Телохранитель 4 [16 из 16] [Детектив, криминал, 2012] SATRip

iopuk60

0 | 2

8.68 ГБ

В этой теме нет новых непрочитанных сообщений. Порох и дробь [24 из 24 ] [Детектив, криминал,2012] SATRip

iopuk60

0 | 2

16.43 ГБ

В этой теме нет новых непрочитанных сообщений. Брат за брата 2 [01-24 из 24] [Детектив, криминал, 2012] SATRip

iopuk60

2 | 3

13.01 ГБ

В этой теме нет новых непрочитанных сообщений. Шаповалов (Шапито) [Серия 1-16 из 16] [Детектив, Криминал, Мелодрама,2012] SATRip

iopuk60

5 | 3

8.68 ГБ


Начать новую тему Ответить на тему  [ 1 сообщение ] 




Для Мосгорсуда, Роскомнадзора и рекламодателей:: mosgorsud-torrent[собачка]yandex.ru