Торрент файл
скачать торрент магнет ссылка Добавлен: 26 май 2014, 17:25
Размер: 2.17 ГБ
Сидеров: 0
Личеров: 3
Статус: (salma3)
Автор

СообщениеДобавлено: 26 май 2014, 17:26 

Не в сети
Аватара пользователя
Дата регистрации:
26 ноя 2013, 12:32
Возраст: 56
Спасибо: 52 / 7
Сообщения: 66
Откуда: СССР
Год выпуска: 2012
Выпущено: Россия ,Пирамида
Жанр: криминал, драма
Перевод: Не требуется
Режиссер: Станислав Назиров
В ролях: Владимир Епифанцев, Анатолий Гущин, Кирилл Гребенщиков, Сергей Никоненко, Дарья Лузина, Владимир Скворцов, Михаил Богдасаров, Яна Гурьянова, Борис Шевченко, Екатерина Виноградова
О фильме: На пешеходном переходе сбита беременная Ирина Варламова, с места происшествия скрывается дорогой спортивный автомобиль. Ирина умирает в больнице, ее восьмимесячная дочь попадает в реанимацию в критическом состоянии. Сергею Варламову, владельцу небольшой автотюнинговой компании, врачи советуют готовиться к худшему. Сергей в шоке - его жизнь разрушена. Сергея утешают друзья - братья Ванек и Санек Самарины. У всех троих общее автомобильно-криминальное прошлое: угоны, позже дорожные "подставы". Все трое гонщики, страстные любители автомобилей.
Сэмпл
Качество: SATRip
Видео: 720x384 (1.88:1), 25 fps, XviD MPEG-4 ~1466 kbps avg, 0.21 bit/pixel
Аудио: 48 kHz, AC3 Dolby Digital, 2/0 (L,R) ch, ~192 kbps
Продолжительность: 4 х ~ 00:45:00
Общее
Полное имя : D:\Мои фильмы\Podstava_1-4iz4_2012_XviD_SATRip\Podstava_1_iz_4_2012_SATRip.avi
Формат : AVI
Формат/Информация : Audio Video Interleave
Размер файла : 555 Мбайт
Продолжительность : 46 м.
Общий поток : 1668 Кбит/сек
Библиотека кодирования : VirtualDub build 35491/release

Видео
Идентификатор : 0
Формат : MPEG-4 Visual
Профиль формата : Advanced Simple@L5
Параметр BVOP формата : 2
Параметр QPel формата : Нет
Параметр GMC формата : Без точки перехода
Параметр матрицы формата : Default (H.263)
Режим смешивания : Сжатый битовый поток
Идентификатор кодека : XVID
Идентификатор кодека/Подсказка : XviD
Продолжительность : 46 м.
Битрейт : 1466 Кбит/сек
Ширина : 720 пикселей
Высота : 384 пикселя
Соотношение сторон : 16:9
Частота кадров : 25,000 кадров/сек
Цветовое пространство : YUV
Субдискретизация насыщенности : 4:2:0
Битовая глубина : 8 бит
Тип развёртки : Прогрессивная
Метод сжатия : С потерями
Бит/(Пиксели*Кадры) : 0.212
Размер потока : 488 Мбайт (88%)
Библиотека кодирования : XviD 65

Аудио
Идентификатор : 1
Формат : AC-3
Формат/Информация : Audio Coding 3
Расширение режима : CM (complete main)
Параметр Endianness формата : Big
Идентификатор кодека : 2000
Продолжительность : 46 м.
Вид битрейта : Постоянный
Битрейт : 192 Кбит/сек
Каналы : 2 канала
Расположение каналов : Front: L R
Частота : 48,0 КГц
Битовая глубина : 16 бит
Метод сжатия : С потерями
Размер потока : 63,9 Мбайт (12%)
Выравнивание : Соединение по промежуткам
Продолжительность промежутка : 40 мс. (1,00 видеокадр)
Время предзагрузки промежутка : 512 мс.





реклама партнёра


Вернуться к началу
 Профиль Отправить личное сообщение  
 
   Похожие торренты   Автор   Торрент   Размер 
В этой теме нет новых непрочитанных сообщений. Подстава / Framed (Фил Карлсон / Phil Karlson) [1975г., боевик, криминал, драма, SATRip] MVO

Alfredovich

6 | 4

1.45 ГБ

В этой теме нет новых непрочитанных сообщений. Подстава / The Death and Life of Bobby Z [Боевик, триллер, драма, криминал, 2007] BDRip 1080p, Mvo

salma3

45 | 14

7.63 ГБ

В этой теме нет новых непрочитанных сообщений. Безмолвие / Молчание / Suskunlar / 1 сезон 1-10 серии из 16 [боевик, триллер, драма, криминал, 2012] SATRip, Avo

salma3

0 | 4

10.76 ГБ

В этой теме нет новых непрочитанных сообщений. Шеф [24 из 24] [Детектив, криминал, 2012] SATRip

iopuk60

0 | 2

13.02 ГБ

В этой теме нет новых непрочитанных сообщений. Дознаватель [24 из 24] [Детектив, криминал, 2012] SATRip

iopuk60

0 | 2

13.03 ГБ

В этой теме нет новых непрочитанных сообщений. Телохранитель 4 [16 из 16] [Детектив, криминал, 2012] SATRip

iopuk60

0 | 2

8.68 ГБ

В этой теме нет новых непрочитанных сообщений. По горячим следам-2 [16 из 16] [Детектив,криминал,2012] SATRip

iopuk60

1 | 120

8.67 ГБ


Начать новую тему Ответить на тему  [ 1 сообщение ] 




Для Мосгорсуда, Роскомнадзора и рекламодателей:: mosgorsud-torrent[собачка]yandex.ru