Торрент файл
скачать торрент магнет ссылка Добавлен: 24 май 2014, 07:28
Размер: 8.74 ГБ
Сидеров: 0
Личеров: 2
Автор

СообщениеДобавлено: 24 май 2014, 07:31 

Не в сети
Аватара пользователя
Дата регистрации:
26 ноя 2013, 12:32
Возраст: 56
Спасибо: 52 / 7
Сообщения: 66
Откуда: СССР
Год выпуска: 2012
Выпущено: Россия ,UMP (United Multimedia Projects), Первый канал
Жанр: Детектив, мистика
Перевод: Не требуется
Режиссер: Андрей Волгин, Максим Кондратенко
В ролях: Павел Трубинер, Светлана Иванова, Игорь Старосельцев, Алексей Лонгин, Наталья Иванова-Фенкина, Вадим Демчог, Иван Охлобыстин, Мария Рыщенкова, Ирина Вилкова, Дарья Сазонова, Алексей Мясников, Александр Орловский, Александр Баширов, Евгения Бордзиловская, Екатерина Молоховская, Никита Емшанов, Иулиана Куликова, Дмитрий Мазуров, Елена Новикова (II), Нелли Пшенная, Максим Костромыкин, Виктория Куликова, Елена Гольянова, Фёдор Дунаевский
О фильме: По мотивам французского 6-серийного телефильма "Греко". Во время операции по освобождению заложника майор МВД Сергей Грачев, по прозвищу "Грач" получает пулю в голову. Он чудом избегает смерти, несмотря на то, что врачи не смогли извлечь пулю. Ранение полностью меняет жизнь Грача. Он пережил клиническую смерть, видел таинственный «тоннель», о котором рассказывают многие умирающие. И, самое главное, Грачу начали являться призраки - духи убитых людей, чьи убийцы до сих пор не найдены. Отвечая на молчаливые просьбы умерших, используя их подсказки, Грач поднимает и расследует старые, безнадежные дела...
Сэмпл
Качество: HDTVRip
Видео: 720x400 (1.80:1), 25 fps, XviD MPEG-4 ~1311 kbps avg, 0.18 bit/pixel
Аудио: 48 kHz, AC3 Dolby Digital, 2/0 (L,R) ch, ~192 kbps
Продолжительность: 12 x ~ 00:50:00
Общее
Полное имя : D:\Мои фильмы\Posrednik_Grach_01-12iz12_2012_XviD_HDTVRip\Posrednik_Grach_01_iz_12_2012_HDTVRip.avi
Формат : AVI
Формат/Информация : Audio Video Interleave
Размер файла : 746 Мбайт
Продолжительность : 50 м.
Общий поток : 2079 Кбит/сек
Программа кодирования : VirtualDubMod 1.5.10.3 | http://www.virtualdub-fr.org || (build 2550/release)
Библиотека кодирования : VirtualDub build 35491/release

Видео
Идентификатор : 0
Формат : MPEG-4 Visual
Профиль формата : Advanced Simple@L5
Параметр BVOP формата : 2
Параметр QPel формата : Нет
Параметр GMC формата : Без точки перехода
Параметр матрицы формата : Default (H.263)
Режим смешивания : Сжатый битовый поток
Идентификатор кодека : XVID
Идентификатор кодека/Подсказка : XviD
Продолжительность : 50 м.
Битрейт : 1877 Кбит/сек
Ширина : 720 пикселей
Высота : 400 пикселей
Соотношение сторон : 16:9
Частота кадров : 25,000 кадров/сек
Цветовое пространство : YUV
Субдискретизация насыщенности : 4:2:0
Битовая глубина : 8 бит
Тип развёртки : Прогрессивная
Метод сжатия : С потерями
Бит/(Пиксели*Кадры) : 0.261
Размер потока : 673 Мбайт (90%)
Библиотека кодирования : XviD 65

Аудио
Идентификатор : 1
Формат : AC-3
Формат/Информация : Audio Coding 3
Расширение режима : CM (complete main)
Параметр Endianness формата : Big
Идентификатор кодека : 2000
Продолжительность : 50 м.
Вид битрейта : Постоянный
Битрейт : 192 Кбит/сек
Каналы : 2 канала
Расположение каналов : Front: L R
Частота : 48,0 КГц
Битовая глубина : 16 бит
Метод сжатия : С потерями
Размер потока : 68,9 Мбайт (9%)
Выравнивание : Соединение по промежуткам
Продолжительность промежутка : 40 мс. (1,00 видеокадр)
Время предзагрузки промежутка : 512 мс.





реклама партнёра


Вернуться к началу
 Профиль Отправить личное сообщение  
 
   Похожие торренты   Автор   Торрент   Размер 
В этой теме нет новых непрочитанных сообщений. Посредник / The go-between (Пит Трэвис / Pete Travis) [2015г., Великобритания, мелодрама, экранизация, HDTVRip] Sub

Alfredovich

23 | 7

961.87 МБ

В этой теме нет новых непрочитанных сообщений. Домик в сердце (Грач Кешишян) [мелодрама, комедия, семейный, 2014] WEB-DL 1080p

Dracon

29 | 5

3.37 ГБ

В этой теме нет новых непрочитанных сообщений. Домик в сердце (Грач Кешишян) [мелодрама, комедия, семейный, 2014] WEB-DLRip

Dracon

57 | 10

1.46 ГБ

В этой теме нет новых непрочитанных сообщений. Провидица (Джуна) [01-08 из 08] (Вадим Островский) [Мистика, биография, детектив, драма, 2015] HDTVRip

Dracon

283 | 79

5.71 ГБ

В этой теме нет новых непрочитанных сообщений. Люцифер / Lucifer [02х01-10 из 22] (драма, ужасы, детектив, триллер, мистика, 2016) HDTVRip 720p | LE-Production

marya111

12 | 43

14.14 ГБ

В этой теме нет новых непрочитанных сообщений. Шерлок: Безобразная невеста / Sherlock: The Abominable Bride (Дуглас МакКиннон) [2015, Детектив, криминал, мистика, экранизация , HDTVRip 1080p ] [DD5.1] [Dub Rus , Eng]+[Sub Rus , Eng]

Враг Нароода

15 | 2

6.44 ГБ

В этой теме нет новых непрочитанных сообщений. Посредник / The Go-Between (Джозеф Лоузи / Joseph Losey) [1970г., драма, мелодрама, BDRip] MVO+avo

Alfredovich

2 | 2

2.18 ГБ


Начать новую тему Ответить на тему  [ 1 сообщение ] 




Для Мосгорсуда, Роскомнадзора и рекламодателей:: mosgorsud-torrent[собачка]yandex.ru