Торрент файл
скачать торрент магнет ссылка Добавлен: 20 май 2014, 06:21
Размер: 16.43 ГБ
Сидеров: 0
Личеров: 2
Статус: (salma3)
Автор

СообщениеДобавлено: 20 май 2014, 06:26 

Не в сети
Аватара пользователя
Дата регистрации:
26 ноя 2013, 12:32
Возраст: 57
Спасибо: 53 / 8
Сообщения: 66
Откуда: СССР
Год выпуска: 2012
Выпущено: Россия ,"Star Media"
Жанр: Детектив,криминал
Перевод: Не требуется
Режиссер: Максим Мехеда, Николай Михайлов, Владимир Самойлюк
В ролях: Вадим Андреев, Александр Яцко, Борис Хвошнянский, Михаил Хмуров, Сергей Стрельников, Василий Щипицын, Наталья Ткаченко, Валерия Ходос, Ольга Лукьяненко, Евгений Капорин, Денис Толяренко, Николай Козак, Артём Музыченко, Алексей Смолка, Дарья Егоркина, Майя Кузьмишина, Виктория Токманенко, Яна Соболевская, Никита Скоморохов, Максим Записочный, Андрей Исаенко, Инга Нагорная, Дмитрий Нежельский, Андрей Фединчик, Никита Чаевский, Ксения Вертинская, Галина Безрук, Алексей Крылов, Игорь Антонов, Даниил Дорошенко, Ольга Радчук, Сергей Калантай, Пётр Сова, Екатерина Варченко, Марк Дробот, Дарья Орехова
О фильме: Уволившись из рядов милиции по выслуге лет, ветераны уголовного розыска Леонид Ковальский, Олег Семенов и Стас Романишин легко нашли себя на «гражданке». Леонид и Стас приглашены преподавателями в Академию права, Олег стал ответственным секретарем в Фонде ветеранов МВД. И хотя всем друзьям за 55, они находятся в прекрасной физической форме.
Честные без кавычек, с прямым характером, они не могут равнодушно воспринимать то, что происходит вокруг. Ведь уголовщина время от времени, тем или иным боком задевает интересы знакомых и друзей...
Сэмпл
Качество: SATRip
Видео: 720x400 (1.80:1), 25 fps, XviD MPEG-4 ~1497 kbps avg, 0.21 bit/pixel
Аудио: 48 kHz, AC3 Dolby Digital, 2/0 (L,R) ch, ~192 kbps
Продолжительность: 24х ~ 00:45:00
Общее
Полное имя : D:\Мои фильмы\Poroh_i_drob'_01-24iz24_2012_XviD_SATRip\Poroh_i_drob'_01_iz_24_2012_SATRip.avi
Формат : AVI
Формат/Информация : Audio Video Interleave
Размер файла : 555 Мбайт
Продолжительность : 45 м.
Общий поток : 1700 Кбит/сек
Программа кодирования : VirtualDubMod 1.5.10.3 | http://www.virtualdub-fr.org || (build 2550/release)
Библиотека кодирования : VirtualDub build 35491/release

Видео
Идентификатор : 0
Формат : MPEG-4 Visual
Профиль формата : Advanced Simple@L5
Параметр BVOP формата : 2
Параметр QPel формата : Нет
Параметр GMC формата : Без точки перехода
Параметр матрицы формата : Default (H.263)
Режим смешивания : Сжатый битовый поток
Идентификатор кодека : XVID
Идентификатор кодека/Подсказка : XviD
Продолжительность : 45 м.
Битрейт : 1498 Кбит/сек
Ширина : 720 пикселей
Высота : 400 пикселей
Соотношение сторон : 16:9
Частота кадров : 25,000 кадров/сек
Цветовое пространство : YUV
Субдискретизация насыщенности : 4:2:0
Битовая глубина : 8 бит
Тип развёртки : Прогрессивная
Метод сжатия : С потерями
Бит/(Пиксели*Кадры) : 0.208
Размер потока : 489 Мбайт (88%)
Библиотека кодирования : XviD 65

Аудио
Идентификатор : 1
Формат : AC-3
Формат/Информация : Audio Coding 3
Расширение режима : CM (complete main)
Параметр Endianness формата : Big
Идентификатор кодека : 2000
Продолжительность : 45 м.
Вид битрейта : Постоянный
Битрейт : 192 Кбит/сек
Каналы : 2 канала
Расположение каналов : Front: L R
Частота : 48,0 КГц
Битовая глубина : 16 бит
Метод сжатия : С потерями
Размер потока : 62,7 Мбайт (11%)
Выравнивание : Соединение по промежуткам
Продолжительность промежутка : 40 мс. (1,00 видеокадр)
Время предзагрузки промежутка : 512 мс.

"]




реклама партнёра


Вернуться к началу
 Профиль Отправить личное сообщение  
 
   Похожие торренты   Автор   Торрент   Размер 
В этой теме нет новых непрочитанных сообщений. Полет аистов / Flight of the Storks [боевик, криминал, детектив, 2012] SATRip, Mvo

salma3

16 | 1

1.56 ГБ

В этой теме нет новых непрочитанных сообщений. Барабанная дробь 2: Новый бит / Drumline: A New Beat [Драма, комедия, 2014] HDTVRip, Mvo

Dracon

13 | 2

1.46 ГБ

В этой теме нет новых непрочитанных сообщений. Барабанная дробь / Drumline [драма, мелодрама, комедия, музыка, 2002] BDRip 1080p, Mvo+Sub

salma3

15 | 3

11.4 ГБ

В этой теме нет новых непрочитанных сообщений. Гриль-бар 'Порох' / The Spitfire Grill [драма, 1996] WEB-DL 720p, Avo+Sub

salma3

24 | 3

3.75 ГБ

В этой теме нет новых непрочитанных сообщений. Леди-детектив мисс Фрайни Фишер / Miss Fisher's Murder Mysteries [S01-02] [драма, криминал, детектив, 2012-2013] DVDRip, HDRip, Mvo

salma3

151 | 102

15.92 ГБ

В этой теме нет новых непрочитанных сообщений. Свидетели [01-20 из 20] [детектив, криминал, 2016] SATRip-AVC

salma3

0 | 0

10.36 ГБ

В этой теме нет новых непрочитанных сообщений. Лучшие враги [30 из 30] [Криминал, детектив, 2014] SATRip

Dracon

1 | 2

614.94 МБ


Начать новую тему Ответить на тему  [ 1 сообщение ] 




Для Мосгорсуда, Роскомнадзора и рекламодателей:: mosgorsud-torrent[собачка]yandex.ru