Торрент файл
скачать торрент магнет ссылка Добавлен: 16 май 2014, 11:51
Размер: 31.8 ГБ
Сидеров: 26
Личеров: 13
Автор

СообщениеДобавлено: 16 май 2014, 11:51 

Не в сети
Супермодератор
Аватара пользователя
Дата регистрации:
15 фев 2012, 16:44
Возраст: 27
Спасибо: 5143 / 2090
Сообщения: 17513
Однажды в Сказке / Once Upon a Time /

Год выхода: 2013-2014
Жанр: фэнтези
Режиссер: Грег Биман, Марк Майлод, Дин Уайт

В ролях: Дженнифер Моррисон, Джиннифер Гудвин, Роберт Карлайл, Лана Паррия, Джошуа Даллас, Джаред Гилмор, Рафаэль Сбардж, Меган Ори, Эмили де Рэйвин, Колин О’Донохью

Описание: Сюжет фэнтези разворачивается в двух мирах — современном и сказочном. Жизнь 28-летней Эммы Свон меняется, когда ее 10-летний сын Генри, от которого она отказалась много лет назад, находит Эмму и объявляет, что она является дочерью Прекрасного Принца и Белоснежки. Само собой разумеется, у мальчишки нет никаких сомнений, что параллельно нашему существует альтернативный сказочный мир — город Сторибрук, в котором в итоге оказывается Эмма. Постепенно героиня привязывается к необычному мальчику и странному городу, жители которого «забыли», кем они были в прошлом. А все из-за проклятия Злой Королевы (по совместительству приемной матери Генри), с помощью которого колдунья остановила время в сказочной стране. Однако стоит протянуть руку — и сказка оживет. Эпическая битва за будущее двух миров начинается, но, чтобы одержать победу, Эмме придется принять свою судьбу…



Выпущено: США
Продолжительность: 22 x 00:43:00
Озвучивание: Любительский (многоголосый, закадровый) [To4ka]

Файл
Качество: WEB-DL 720p
Формат файла: MKV
Видео кодек: H.264
Аудио кодек: AC3
Видео: 1280x720 (1.77:1), 23,976 fps, AVC (х264), High@L3.1, ~4197 kbps avg, 0.190 bit/pixel
Аудио Rus/Eng: 48.0 kHz, AC3 Dolby Digital, 3/2 (L, C, R, l, r) + LFE ch, ~384 kbps avg

Общее
Уникальный идентификатор : 174349550923654238569344729839782644971 (0x832A8089106D9AE7BA029EABC7BCCCEB)
Полное имя : D:\кино\сериалы\Once Upon a Time Season 3 WEB-DL 720p\Once.Upon.A.Time.s03e01.WEB-DL.720p.Rus.Eng.To4ka.mkv
Формат : Matroska
Версия формата : Version 2
Размер файла : 1,52 Гбайт
Продолжительность : 42 м.
Общий поток : 5066 Кбит/сек
Название фильма : OUaT 3x01 – The Heart of the Truest Believer / Сердце истинно верующего
Дата кодирования : UTC 2013-10-16 22:00:12
Программа кодирования : mkvmerge v6.1.0 ('Old Devil') built on Mar 2 2013 14:32:37
Библиотека кодирования : libebml v1.3.0 + libmatroska v1.4.0
Attachment : Yes

Видео
Идентификатор : 1
Формат : AVC
Формат/Информация : Advanced Video Codec
Профиль формата : High@L3.1
Параметр CABAC формата : Нет
Параметр ReFrames формата : 2 кадра
Идентификатор кодека : V_MPEG4/ISO/AVC
Продолжительность : 42 м.
Битрейт : 4197 Кбит/сек
Ширина : 1280 пикселей
Высота : 720 пикселей
Соотношение сторон : 16:9
Частота кадров : 23,976 кадра/сек
Цветовое пространство : YUV
Субдискретизация насыщенности : 4:2:0
Битовая глубина : 8 бит
Тип развёртки : Прогрессивная
Бит/(Пиксели*Кадры) : 0.190
Размер потока : 1,26 Гбайт (83%)
Язык : English
Основные цвета : BT.709-5, BT.1361, IEC 61966-2-4, SMPTE RP177
Характеристики трансфера : BT.709-5, BT.1361
Коэффициенты матрицы : BT.709-5, BT.1361, IEC 61966-2-4 709, SMPTE RP177

Аудио #1
Идентификатор : 2
Формат : AC-3
Формат/Информация : Audio Coding 3
Расширение режима : CM (complete main)
Идентификатор кодека : A_AC3
Продолжительность : 42 м.
Вид битрейта : Постоянный
Битрейт : 384 Кбит/сек
Каналы : 6 каналов
Расположение каналов : Front: L C R, Side: L R, LFE
Частота : 48,0 КГц
Битовая глубина : 16 бит
Метод сжатия : С потерями
Размер потока : 118 Мбайт (8%)
Заголовок : To4ka
Язык : Russian

Аудио #2
Идентификатор : 3
Формат : AC-3
Формат/Информация : Audio Coding 3
Расширение режима : CM (complete main)
Идентификатор кодека : A_AC3
Продолжительность : 42 м.
Вид битрейта : Постоянный
Битрейт : 384 Кбит/сек
Каналы : 6 каналов
Расположение каналов : Front: L C R, Side: L R, LFE
Частота : 48,0 КГц
Битовая глубина : 16 бит
Метод сжатия : С потерями
Размер потока : 118 Мбайт (8%)
Заголовок : Original
Язык : English

Текст #1
Идентификатор : 4
Формат : UTF-8
Идентификатор кодека : S_TEXT/UTF8
Идентификатор кодека/Информация : UTF-8 Plain Text
Заголовок : To4ka Translate
Язык : Russian

Текст #2
Идентификатор : 5
Формат : UTF-8
Идентификатор кодека : S_TEXT/UTF8
Идентификатор кодека/Информация : UTF-8 Plain Text
Заголовок : Addic7ed
Язык : English

Релиз:


_________________



реклама партнёра


Вернуться к началу
 Профиль Отправить личное сообщение  
 
   Похожие торренты   Автор   Торрент   Размер 
В этой теме нет новых непрочитанных сообщений. Однажды в Сказке / Once Upon a Time / 3 сезон 1-22 серии из 22 [фэнтези, 2013-2014] WEB-DLRip, Avo

salma3

349 | 100

9.62 ГБ

В этой теме нет новых непрочитанных сообщений. Однажды в Сказке / Once Upon a Time / 4 сезон 1-23 серии из 23 [фэнтези, драма, приключения , 2014] WEB-DLRip, Dub [Невафильм]

salma3

1080 | 538

11.22 ГБ

В этой теме нет новых непрочитанных сообщений. Однажды в сказке / Once Upon a Time [04x01-10 из 22] (Грег Биман, Марк Майлод, Дин Уайт) [2014, Фэнтези, приключения, WEB-DLRip | To4ka]

Nickolas3435

48 | 77

4.4 ГБ

В этой теме нет новых непрочитанных сообщений. Однажды в сказке / Once Upon a Time [06х01-02] [Драма, фэнтези, 2016] WEB-DLRip, Dvo [Кубик в Кубе]

marya111

42 | 20

1.67 ГБ

В этой теме нет новых непрочитанных сообщений. Однажды в сказке / Once Upon a Time [05х01-11] (Грег Биман, Марк Майлод, Дин Уайт) [2015, Драма, фэнтези, WEB-DL 720р | Кубик в Кубе]

Nickolas3435

6 | 0

15.88 ГБ

В этой теме нет новых непрочитанных сообщений. Однажды в сказке / Once Upon a Time [05х01-11 из 22] (Грег Биман, Марк Майлод, Дин Уайт) [2015, Фэнтези, приключения, WEB-DLRip | Кубик в Кубе]

Nickolas3435

0 | 0

9.27 ГБ

В этой теме нет новых непрочитанных сообщений. Однажды в сказке / Once Upon a Time [05х01-10 из 22] (Грег Биман, Марк Майлод, Дин Уайт) [2015, Драма, фэнтези, WEB-DL 1080р | Кубик в Кубе]

Dracon

0 | 1

17.64 ГБ


Начать новую тему Ответить на тему  [ 1 сообщение ] 




Для Мосгорсуда, Роскомнадзора и рекламодателей:: mosgorsud-torrent[собачка]yandex.ru