Торрент файл
скачать торрент магнет ссылка Добавлен: 16 май 2014, 11:33
Размер: 31.74 ГБ
Сидеров: 50
Личеров: 28
Статус: (salma3)
Автор

СообщениеДобавлено: 16 май 2014, 11:33 

Не в сети
Супермодератор
Аватара пользователя
Дата регистрации:
15 фев 2012, 16:44
Возраст: 27
Спасибо: 5143 / 2090
Сообщения: 17514
Возмездие / Месть / Revenge /

Год выхода: 2013-2014
Жанр: триллер, драма, мелодрама, детектив
Режиссер: Мэтт Эрл Бисли, Филлип Нойс

В ролях: Робби Амелл, Макс Мартини, Стефен Эллиотт, Криста Б. Аллен, Джошуа Боуман, Кристина Чанг

Описание: В центре сюжета находится богатое семейство Грейсонов, живущих в Хамптонсе, на Лонг-Айленде, Нью-Йорк. Много лет назад Конрад и Виктория Грейсон подставили своего друга, Дэвида Кларка, свалив на него ответственность в организации террористического акта, повлекшего массовые смерти. Дэвид был осужден и умер в тюрьме. Спустя годы, его дочь, Аманда Кларк, возвращается в город под именем Эмили Торн, чтобы отомстить ответственным за гибель отца.



Выпущено: США
Продолжительность: 22 x 00:43:00
Озвучивание: Профессиональный (двухголосый, закадровый) [NewStudio]

Файл
Качество: WEB-DL 720p
Формат файла: MKV
Видео кодек: H.264
Аудио кодек: AC3
Видео: 1280x720 (1.77:1), 23,976 fps, AVC (х264), High@L3.1, ~3841 kbps avg, 0.174 bit/pixel
Аудио Rus: 48.0 kHz, AC3 Dolby Digital, 3/2 (L, C, R, l, r) + LFE ch, ~384 kbps avg
Аудио Eng: 48.0 kHz, AC3 Dolby Digital, 3/2 (L, C, R, l, r) + LFE ch, ~384 kbps avg

Озвучка: Константин Погодаев, Ирина Воронова
Перевод: Weirdie

Общее
Уникальный идентификатор : 249885532193764230734257432725359974330 (0xBBFE33F20C5136BC9E68AA997D1C57BA)
Полное имя : D:\кино\сериалы\Revenge.s03.WEBDL.720p.NewStudio.TV\Revenge.s03e01.WEBDL.720p.NewStudio.TV.mkv
Формат : Matroska
Версия формата : Version 2
Размер файла : 1,42 Гбайт
Продолжительность : 43 м.
Общий поток : 4703 Кбит/сек
Дата кодирования : UTC 2013-10-01 12:12:04
Программа кодирования : mkvmerge v2.9.9 ('Tutu') built on Nov 25 2009 21:13:32
Библиотека кодирования : libebml v0.7.9 + libmatroska v0.8.1

Видео
Идентификатор : 1
Формат : AVC
Формат/Информация : Advanced Video Codec
Профиль формата : High@L3.1
Параметр CABAC формата : Нет
Параметр ReFrames формата : 2 кадра
Идентификатор кодека : V_MPEG4/ISO/AVC
Продолжительность : 43 м.
Битрейт : 3841 Кбит/сек
Ширина : 1280 пикселей
Высота : 720 пикселей
Соотношение сторон : 16:9
Частота кадров : 23,976 кадра/сек
Цветовое пространство : YUV
Субдискретизация насыщенности : 4:2:0
Битовая глубина : 8 бит
Тип развёртки : Прогрессивная
Бит/(Пиксели*Кадры) : 0.174
Размер потока : 1,16 Гбайт (82%)
Язык : English
Основные цвета : BT.709-5, BT.1361, IEC 61966-2-4, SMPTE RP177
Характеристики трансфера : BT.709-5, BT.1361
Коэффициенты матрицы : BT.709-5, BT.1361, IEC 61966-2-4 709, SMPTE RP177

Аудио #1
Идентификатор : 2
Формат : AC-3
Формат/Информация : Audio Coding 3
Расширение режима : CM (complete main)
Идентификатор кодека : A_AC3
Продолжительность : 43 м.
Вид битрейта : Постоянный
Битрейт : 384 Кбит/сек
Каналы : 6 каналов
Расположение каналов : Front: L C R, Side: L R, LFE
Частота : 48,0 КГц
Битовая глубина : 16 бит
Метод сжатия : С потерями
Размер потока : 118 Мбайт (8%)
Язык : Russian

Аудио #2
Идентификатор : 3
Формат : AC-3
Формат/Информация : Audio Coding 3
Расширение режима : CM (complete main)
Идентификатор кодека : A_AC3
Продолжительность : 43 м.
Вид битрейта : Постоянный
Битрейт : 384 Кбит/сек
Каналы : 6 каналов
Расположение каналов : Front: L C R, Side: L R, LFE
Частота : 48,0 КГц
Битовая глубина : 16 бит
Метод сжатия : С потерями
Размер потока : 118 Мбайт (8%)
Язык : English

Релиз:


_________________



реклама партнёра


Вернуться к началу
 Профиль Отправить личное сообщение  
 
   Похожие торренты   Автор   Торрент   Размер 
В этой теме нет новых непрочитанных сообщений. Возмездие / Месть / Revenge / 4 сезон 1-23 серии из 23 [драма, мелодрама, триллер, детектив, 2014] WEB-DLRip, Dvo [NewStudio]

salma3

305 | 382

12.35 ГБ

В этой теме нет новых непрочитанных сообщений. Возмездие / Месть / Revenge [04x01-20 из 22] (Мэтт Эрл Бисли, Филлип Нойс) [2014, Драма, WEB-DL 1080p | NewStudio]

Nickolas3435

3 | 22

34.84 ГБ

В этой теме нет новых непрочитанных сообщений. Возмездие / Месть / Revenge [04x01-14 из 22] (Мэтт Эрл Бисли, Филлип Нойс) [2014, Драма, WEB-DL 1080p | NewStudio]

Nickolas3435

29 | 27

24.22 ГБ

В этой теме нет новых непрочитанных сообщений. Возмездие / Месть / Revenge [04x01-18 из 22] (Мэтт Эрл Бисли, Филлип Нойс) [2014, Драма, WEB-DL 1080p | NewStudio]

Nickolas3435

10 | 17

31.35 ГБ

В этой теме нет новых непрочитанных сообщений. Возмездие / Месть / Revenge [04x01-13 из 22] (Мэтт Эрл Бисли, Филлип Нойс) [2014, Драма, WEB-DL 1080p | NewStudio]

Nickolas3435

6 | 10

22.37 ГБ

В этой теме нет новых непрочитанных сообщений. Милые обманщицы / Pretty Little Liars / 4 сезон 0-18 серии из 24 [триллер, мелодрама, детектив, 2013] WEB-DLRip, Dvo [NewStudio]

salma3

4 | 6

9.27 ГБ

В этой теме нет новых непрочитанных сообщений. База Куантико / Quantico / 2 сезон 1-08 серии из 22 [триллер, драма, криминал, детектив, 2016] WEB-DL 720p, Mvo [NewStudio]

salma3

11 | 17

11.83 ГБ


Начать новую тему Ответить на тему  [ 1 сообщение ] 




Для Мосгорсуда, Роскомнадзора и рекламодателей:: mosgorsud-torrent[собачка]yandex.ru