Торрент файл
скачать торрент магнет ссылка Добавлен: 13 май 2014, 10:27
Размер: 4.34 ГБ
Сидеров: 1
Личеров: 3
Статус: (salma3)
Автор

СообщениеДобавлено: 13 май 2014, 10:27 

Не в сети
Аватара пользователя
Дата регистрации:
26 ноя 2013, 12:32
Возраст: 56
Спасибо: 52 / 7
Сообщения: 66
Откуда: СССР
Год выпуска: 2014
Выпущено: Россия ,Украина ,FILM.UA, Intra
Жанр: Детектив, криминал
Перевод: Не требуется
Режиссер: Андрей Черных
В ролях: Иван Оганесян, Екатерина Решетникова, Вова Машук, Виктория Литвиненко, Александр Фисенко, Максим Важов, Виталий Салий, Виктор Алдошин, Михаил Досенко, Владимир Заднепровский, Александр Кузнецов, Владимир Мельник, Тарас Готовцев, Наталья Кудряшова (II), Варвара Куприна
О фильме: Настя с сыном Иваном впервые за долгие годы приехали в город из деревни староверов. Их окружает чужой, непривычный, полный опасностей и соблазнов мир. По случайности Ваня становится единственным свидетелем убийства журналиста, который расследовал скандальное дело с участием высокопоставленных лиц. Дело об убийстве поручают принципиальному, но очень своенравному следователю Лещёву. Общаясь с мальчиком, он выясняет, что один из убийц журналистов – сотрудник полиции. С этого момента жизнь Вани, Насти и самого Лещёва находится в опасности.
Сэмпл
Качество: WEBRip
Видео: 720x400 (1.80:1), 25 fps, XviD MPEG-4 ~1362 kbps avg, 0.19 bit/pixel
Аудио: 48 kHz, AC3 Dolby Digital, 2/0 (L,R) ch, ~192 kbps
Продолжительность: 8 х ~ 00:45:00
Общее
Полное имя : D:\Мои фильмы\Tak_daleko_tak_blizko_1-8iz8_2014_XviD_WEBRip\Tak_daleko_tak_blizko_1_iz_8_2014_WEBRip.avi
Формат : AVI
Формат/Информация : Audio Video Interleave
Размер файла : 555 Мбайт
Продолжительность : 45 м.
Общий поток : 1714 Кбит/сек
Программа кодирования : Lavf55.21.100
Библиотека кодирования : VirtualDub build 35491/release

Видео
Идентификатор : 0
Формат : MPEG-4 Visual
Профиль формата : Advanced Simple@L5
Параметр BVOP формата : 2
Параметр QPel формата : Нет
Параметр GMC формата : Без точки перехода
Параметр матрицы формата : Default (H.263)
Режим смешивания : Сжатый битовый поток
Идентификатор кодека : XVID
Идентификатор кодека/Подсказка : XviD
Продолжительность : 45 м.
Битрейт : 1513 Кбит/сек
Ширина : 720 пикселей
Высота : 400 пикселей
Соотношение сторон : 16:9
Частота кадров : 25,000 кадров/сек
Цветовое пространство : YUV
Субдискретизация насыщенности : 4:2:0
Битовая глубина : 8 бит
Тип развёртки : Прогрессивная
Метод сжатия : С потерями
Бит/(Пиксели*Кадры) : 0.210
Размер потока : 490 Мбайт (88%)
Библиотека кодирования : XviD 65

Аудио
Идентификатор : 1
Формат : AC-3
Формат/Информация : Audio Coding 3
Расширение режима : CM (complete main)
Параметр Endianness формата : Big
Идентификатор кодека : 2000
Продолжительность : 45 м.
Вид битрейта : Постоянный
Битрейт : 192 Кбит/сек
Каналы : 2 канала
Расположение каналов : Front: L R
Частота : 44,1 КГц
Битовая глубина : 16 бит
Метод сжатия : С потерями
Размер потока : 62,0 Мбайт (11%)
Выравнивание : Соединение по промежуткам
Продолжительность промежутка : 40 мс. (1,00 видеокадр)
Время предзагрузки промежутка : 522 мс.





реклама партнёра


Вернуться к началу
 Профиль Отправить личное сообщение  
 
   Похожие торренты   Автор   Торрент   Размер 
В этой теме нет новых непрочитанных сообщений. Тихая охота [01-30 из 30] [Детектив, криминал.2014] WEBRip

iopuk60

3 | 2

13.05 ГБ

В этой теме нет новых непрочитанных сообщений. Клянёмся защищать [8 из 8] [Детектив, криминал, 2014] WEBRip

iopuk60

1 | 3

4.34 ГБ

В этой теме нет новых непрочитанных сообщений. Черная роза / Black Rose [детектив, триллер, криминал, 2014] WEBRip, dub

Dracon

202 | 7

1.37 ГБ

В этой теме нет новых непрочитанных сообщений. Убийство / The Killing [S01-04] [драма, криминал, детектив, 2011-2014] WEB-DLRip, WEBRip, Mvo [LostFilm]

salma3

161 | 158

17.14 ГБ

В этой теме нет новых непрочитанных сообщений. Созвездие Змееносец - ученик великого сыщика Пуаро (Алексей Меняйлов) [2014, комедия, криминал, детектив, WEBRip]

vairgin

11 | 1

266.1 МБ

В этой теме нет новых непрочитанных сообщений. Цезарь (8 из 8) [Детектив, криминал,2013] WEBRip

iopuk60

0 | 3

4.34 ГБ

В этой теме нет новых непрочитанных сообщений. Охотники за головами [8 из 8] [Детектив, мелодрама,2014] WEBRip

iopuk60

0 | 3

4.34 ГБ


Начать новую тему Ответить на тему  [ 1 сообщение ] 




Для Мосгорсуда, Роскомнадзора и рекламодателей:: mosgorsud-torrent[собачка]yandex.ru