Торрент файл
скачать торрент магнет ссылка Добавлен: 11 май 2014, 10:03
Размер: 2.17 ГБ
Сидеров: 0
Личеров: 2
Статус: (salma3)
Автор

СообщениеДобавлено: 11 май 2014, 10:04 

Не в сети
Аватара пользователя
Дата регистрации:
26 ноя 2013, 12:32
Возраст: 56
Спасибо: 52 / 7
Сообщения: 66
Откуда: СССР
Год выпуска: 2014
Выпущено: Россия , Марс Медиа Энтертейнмент
Жанр: Военный,драма
Перевод: Не требуется
Режиссер: Александр Франскевич-Лайе
В ролях: Алексей Гуськов, Евгения Брик (Хиривская), Наталия Быстрова, Анна Рыцарева, Ольга Шувалова, Вероника Пляшкевич, Иван Мацкевич, Игорь Денисов
О фильме: Для выполнения особо важного задания фронтовик-разведчик капитан Михасев должен получить под свое командование спецразведгруппу из четырех бойцов. Только эти бойцы оказываются… юными девушками. Вчерашним школьницам предстоит проникнуть на узел связи вражеской армии и парализовать его работу, обеспечив успех наступательной операции советских войск.
Сэмпл
Качество: WEBRip
Видео: 720x352 (2.05:1), 25 fps, XviD MPEG-4 ~1486 kbps avg, 0.23 bit/pixel
Аудио: 48 kHz, AC3 Dolby Digital, 2/0 (L,R) ch, ~192 kbps
Продолжительность: 4 x ~ 00:45:00
Общее
Полное имя : D:\Мои фильмы\Ne_pokidaj_menja_1-4iz4_2014_XviD_WEBRip\Ne_pokidaj_menja_1_iz_4_2014_WEBRip.avi
Формат : AVI
Формат/Информация : Audio Video Interleave
Размер файла : 555 Мбайт
Продолжительность : 46 м.
Общий поток : 1688 Кбит/сек
Библиотека кодирования : VirtualDub build 35491/release

Видео
Идентификатор : 0
Формат : MPEG-4 Visual
Профиль формата : Advanced Simple@L5
Параметр BVOP формата : 2
Параметр QPel формата : Нет
Параметр GMC формата : Без точки перехода
Параметр матрицы формата : Default (H.263)
Режим смешивания : Сжатый битовый поток
Идентификатор кодека : XVID
Идентификатор кодека/Подсказка : XviD
Продолжительность : 46 м.
Битрейт : 1487 Кбит/сек
Ширина : 720 пикселей
Высота : 352 пикселя
Соотношение сторон : 2,045
Частота кадров : 25,000 кадров/сек
Цветовое пространство : YUV
Субдискретизация насыщенности : 4:2:0
Битовая глубина : 8 бит
Тип развёртки : Прогрессивная
Метод сжатия : С потерями
Бит/(Пиксели*Кадры) : 0.235
Размер потока : 489 Мбайт (88%)
Библиотека кодирования : XviD 65

Аудио
Идентификатор : 1
Формат : AC-3
Формат/Информация : Audio Coding 3
Расширение режима : CM (complete main)
Параметр Endianness формата : Big
Идентификатор кодека : 2000
Продолжительность : 46 м.
Вид битрейта : Постоянный
Битрейт : 192 Кбит/сек
Каналы : 2 канала
Расположение каналов : Front: L R
Частота : 48,0 КГц
Битовая глубина : 16 бит
Метод сжатия : С потерями
Размер потока : 63,2 Мбайт (11%)
Выравнивание : Соединение по промежуткам
Продолжительность промежутка : 40 мс. (1,00 видеокадр)
Время предзагрузки промежутка : 512 мс.





реклама партнёра


Вернуться к началу
 Профиль Отправить личное сообщение  
 
   Похожие торренты   Автор   Торрент   Размер 
В этой теме нет новых непрочитанных сообщений. Не покидай меня [01-04 из 04] [Военный, приключения, 2013] HDTVRip

Dracon

534 | 35

2.34 ГБ

В этой теме нет новых непрочитанных сообщений. Не покидай меня [серия 1-4 из 4] (Александр Франскевич-Лайе) [мелодрама, военный, история, 2013] HDTV 1080i

Dracon

2 | 5

16.7 ГБ

В этой теме нет новых непрочитанных сообщений. Как правильно расстреливать [документальный, военный, приключения, 2013] WEBRip

EvgenijUg

5 | 3

354.8 МБ

В этой теме нет новых непрочитанных сообщений. Гетеры майора Соколова [01-8 из 8] [Военный, драма, 2013] WEBRip

iopuk60

0 | 2

4.34 ГБ

В этой теме нет новых непрочитанных сообщений. Битва за Мён Рян / Myeong-ryang (Ким Хан Мин) [Приключения, Военный, Биография, 2014] WEBRip, avo

Dracon

321 | 39

1.45 ГБ

В этой теме нет новых непрочитанных сообщений. Как правильно расстреливать (Штрафбат, Николай Досталь, 2004) [ Боевик, драма, военный, 2013] WEBRip

vairgin

2 | 2

345.28 МБ

В этой теме нет новых непрочитанных сообщений. До + Фа = Любовь [комедия, приключения, 2013] WEBRip

Dracon

19 | 5

1.39 ГБ


Начать новую тему Ответить на тему  [ 1 сообщение ] 




Для Мосгорсуда, Роскомнадзора и рекламодателей:: mosgorsud-torrent[собачка]yandex.ru