Торрент файл
скачать торрент магнет ссылка Добавлен: 13 апр 2014, 11:59
Размер: 8.72 ГБ
Сидеров: 0
Личеров: 2
Статус: (salma3)
Автор

СообщениеДобавлено: 13 апр 2014, 12:09 

Не в сети
Аватара пользователя
Дата регистрации:
26 ноя 2013, 12:32
Возраст: 57
Спасибо: 54 / 8
Сообщения: 66
Откуда: СССР
Год выпуска: 2012
Выпущено: Россия ,Студия "Панорама", "Форвард-фильм"
Жанр: Детектив, криминал
Перевод: Не требуется
Режиссер: Станислав Титаренко
В ролях: Роман Полянский, Елена Радевич, Денис Синявский, Андрей Ребров, Дмитрий Сутырин, Сергей Колос, Анатолий Журавин, Анна Арефьева, Яков Шамшин, Олег Куликович
О фильме: Когда-то опер из управления по борьбе с наркотиками Игорь Ребров пришел на работу с благими намерениями, но окружающий быт и условия сильно на него повлияли. Когда вокруг все зарабатывают деньги, трудно остаться белой вороной. И Игорь становится "как все": крышует торговцев, решает вопросы для коммерсантов, организует передачу взяток и помогает рейдерам. Однажды Игоря просят посодействовать в освобождении преступного авторитета. Для решения вопроса он договаривается о своем включении в следственную бригаду. Главным следователем по этому делу оказывается очень принципиальная молодая девушка Ольга Баренцева. С ней нельзя договориться. Она ничего не боится. Игорю приходится действовать осторожно и мягко, втираясь к ней в доверие. В какой-то момент Игорь поймёт, что эта девушка для него много значит — и далеко не только по работе. Судьба поставит его перед выбором. Какой выбор сделает Игорь?
Сэмпл
Качество: DVDRip
Видео: 720x400 (1.80:1), 25 fps, XviD MPEG-4 ~1362 kbps avg, 0.19 bit/pixel
Аудио: 48 kHz, AC3 Dolby Digital, 2/0 (L,R) ch, ~192 kbps
Продолжительность: 12 x ~ 00:46:00
Общее
Полное имя : D:\Мои фильмы\Predatel'_01-12iz12_2012_XviD_DVDRip\Predatel'_01_iz_12_2012_DVDRip.avi
Формат : AVI
Формат/Информация : Audio Video Interleave
Размер файла : 745 Мбайт
Продолжительность : 48 м.
Общий поток : 2128 Кбит/сек
Библиотека кодирования : VirtualDub build 35491/release

Видео
Идентификатор : 0
Формат : MPEG-4 Visual
Профиль формата : Advanced Simple@L5
Параметр BVOP формата : 2
Параметр QPel формата : Нет
Параметр GMC формата : Без точки перехода
Параметр матрицы формата : Default (H.263)
Режим смешивания : Сжатый битовый поток
Идентификатор кодека : XVID
Идентификатор кодека/Подсказка : XviD
Продолжительность : 48 м.
Битрейт : 1926 Кбит/сек
Ширина : 720 пикселей
Высота : 400 пикселей
Соотношение сторон : 16:9
Частота кадров : 25,000 кадров/сек
Цветовое пространство : YUV
Субдискретизация насыщенности : 4:2:0
Битовая глубина : 8 бит
Тип развёртки : Прогрессивная
Метод сжатия : С потерями
Бит/(Пиксели*Кадры) : 0.267
Размер потока : 675 Мбайт (91%)
Библиотека кодирования : XviD 64

Аудио
Идентификатор : 1
Формат : AC-3
Формат/Информация : Audio Coding 3
Расширение режима : CM (complete main)
Параметр Endianness формата : Big
Идентификатор кодека : 2000
Продолжительность : 48 м.
Вид битрейта : Постоянный
Битрейт : 192 Кбит/сек
Каналы : 2 канала
Расположение каналов : Front: L R
Частота : 48,0 КГц
Битовая глубина : 16 бит
Метод сжатия : С потерями
Размер потока : 67,3 Мбайт (9%)
Выравнивание : Разделение по промежуткам
Продолжительность промежутка : 40 мс. (1,00 видеокадр)
Время предзагрузки промежутка : 512 мс.





реклама партнёра


Вернуться к началу
 Профиль Отправить личное сообщение  
 
   Похожие торренты   Автор   Торрент   Размер 
В этой теме нет новых непрочитанных сообщений. Такой же предатель, как и мы / Our Kind of Traitor [триллер, 2016] HDRip, mvo [iTunes]

marya111

469 | 24

1.37 ГБ

В этой теме нет новых непрочитанных сообщений. Такой же предатель, как и мы / Our Kind of Traitor [триллер, 2016] HDRip, mvo [iTunes]

marya111

291 | 27

1.45 ГБ

В этой теме нет новых непрочитанных сообщений. Такой же предатель, как и мы / Our Kind of Traitor [Триллер, 2016] BDRip 720p, mvo [iTunes]

marya111

0 | 0

5.38 ГБ

В этой теме нет новых непрочитанных сообщений. Звёздный десант: Предатель Марса / Starship Troopers: Traitor of Mars [Мультфильм, фантастика, боевик, 2017] Blu-Ray EUR 1080p, Dub [Лицензия]

salma3

12 | 57

31.09 ГБ

В этой теме нет новых непрочитанных сообщений. Звёздный десант: Предатель Марса / Starship Troopers: Traitor of Mars [мультфильм, фантастика, боевик, 2017] WEB-DLRip, Mvo [Line]

salma3

2021 | 359

1.37 ГБ

В этой теме нет новых непрочитанных сообщений. Звёздный десант: Предатель Марса / Starship Troopers: Traitor of Mars [мультфильм, фантастика, боевик, 2017] BDRip, Mvo [Лицензия]

salma3

1 | 49

1.46 ГБ

В этой теме нет новых непрочитанных сообщений. Звёздный десант: Предатель Марса / Starship Troopers: Traitor of Mars [Мультфильм, фантастика, боевик, 2017] BDRip-AVC, Mvo [Лицензия]

salma3

52 | 4

2.18 ГБ


Начать новую тему Ответить на тему  [ 1 сообщение ] 




Для Мосгорсуда, Роскомнадзора и рекламодателей:: mosgorsud-torrent[собачка]yandex.ru