Торрент файл
скачать торрент магнет ссылка Добавлен: 28 мар 2014, 02:47
Размер: 248.77 ГБ
Сидеров: 39
Личеров: 66
Автор

СообщениеДобавлено: 28 мар 2014, 02:47 

Не в сети
Супермодератор
Аватара пользователя
Дата регистрации:
15 фев 2012, 16:44
Возраст: 27
Спасибо: 6229 / 2125
Сообщения: 33850
Друзья / Friends /

Год выпуска: 1994-2004
Жанр: комедия, мелодрама
Режиссер: Гари Хэлворсон, Кевин Брайт, Майкл Лембек

В ролях: Дженнифер Энистон, Кортни Кокс, Лиза Кудроу, Мэтт ЛеБлан, Мэттью Перри, Дэвид Швиммер, Джеймс Майкл Тайлер, Эллиот Гулд, Кристина Пиклз, Мэгги Уиллер, Том Селлек

Описание: Веселые и обаятельные герои «Друзей» - простые американские ребята. Ветреная Рейчел, красотка Моника, известная своими неудачными романами, весельчак Чандлер, сентиментальная Фиби, красавчик Джоуи, мечтающий стать знаменитым актером, добродушный интеллектуал Росс. Они влюбляются, ищут работу, ссорятся, женятся, разводятся, у них вечно не хватает денег. Приключения «великолепной шестерки» продолжаются, кое-кого из них ожидают большие перемены в личной жизни. Завоюет ли сердце Рейчел влюбленный Росс? Повезет ли Монике с очередным «избранником»? Шестеро молодых людей, снимающие уютную квартиру в самом веселом богемном районе Нью-Йорка - «Вест Вилледж», завоевали всеобщую любовь сначала в Соединенных Штатах, а потом и за их пределами по обе стороны Атлантического океана. Их шутки становятся культовыми, поклонники подражают им во всем - манера одеваться, стрижки, любимые словечки. «Друзья» получили тридцать три номинации на «Эмми», из которых четыре - за «Лучший комедийный телесериал», и три номинации на «Золотой глобус»..



Страна: США | Warner Bros. Television
Продолжительность: 236 х ~00:23:00
Перевод: Профессиональный (Многоголосый, закадровый) [СТС-РТР]

Файл
Качество: BDRip 720p
Формат файла: MKV
Видео кодек: H264
Аудио кодек: AC3
Видео: 1280x720 (1.77:1), 23.976 fps, AVC (x264), High@ L4.1 ~4726 kbps avg, 0.214 bit/pixel.
Аудио: 48 kHz, AC3 Dolby Digital, 2/0 (L,R) ch, ~192 kbps.
Аудио Eng: 48 kHz, AC3 Dolby Digital, 3/2 (L, C, R, l, r) + LFE ch, ~640 kbps.

Формат : Matroska
Версия формата : Version 4 / Version 2
Размер файла : 923 Мбайт
Продолжительность : 23 м.
Общий поток : 5559 Кбит/сек
Дата кодирования : UTC 2013-07-27 12:42:03
Программа кодирования : mkvmerge v6.2.0 ('Promised Land') built on Apr 28 2013 18:50:30
Библиотека кодирования : libebml v1.3.0 + libmatroska v1.4.0

Видео
Идентификатор : 1
Формат : AVC
Формат/Информация : Advanced Video Codec
Профиль формата : High@L4.1
Параметр CABAC формата : Да
Параметр ReFrames формата : 5 кадров
Идентификатор кодека : V_MPEG4/ISO/AVC
Продолжительность : 23 м.
Битрейт : 4726 Кбит/сек
Ширина : 1280 пикселей
Высота : 720 пикселей
Соотношение сторон : 16:9
Режим частоты кадров : Постоянный
Частота кадров : 23,976 кадра/сек
Цветовое пространство : YUV
Субдискретизация насыщенности : 4:2:0
Битовая глубина : 8 бит
Тип развёртки : Прогрессивная
Бит/(Пиксели*Кадры) : 0.214
Размер потока : 767 Мбайт (83%)
Библиотека кодирования : x264 core 128 r2216 198a7ea
Настройки программы : cabac=1 / ref=5 / deblock=1:0:0 / analyse=0x3:0x113 / me=umh / subme=8 / psy=1 / psy_rd=1.00:0.00 / mixed_ref=1 / me_range=16 / chroma_me=1 / trellis=1 / 8x8dct=1 / cqm=0 / deadzone=21,11 / fast_pskip=1 / chroma_qp_offset=-2 / threads=12 / lookahead_threads=2 / sliced_threads=0 / nr=0 / decimate=1 / interlaced=0 / bluray_compat=0 / constrained_intra=0 / bframes=3 / b_pyramid=2 / b_adapt=2 / b_bias=0 / direct=3 / weightb=1 / open_gop=0 / weightp=2 / keyint=240 / keyint_min=24 / scenecut=40 / intra_refresh=0 / rc_lookahead=50 / rc=2pass / mbtree=1 / bitrate=4726 / ratetol=1.0 / qcomp=0.60 / qpmin=0 / qpmax=69 / qpstep=4 / cplxblur=20.0 / qblur=0.5 / ip_ratio=1.40 / aq=1:1.00
Язык : English
Default : Нет
Forced : Нет

Аудио #1
Идентификатор : 2
Формат : AC-3
Формат/Информация : Audio Coding 3
Расширение режима : CM (complete main)
Параметр Endianness формата : Big
Идентификатор кодека : A_AC3
Продолжительность : 23 м.
Вид битрейта : Постоянный
Битрейт : 192 Кбит/сек
Каналы : 2 канала
Расположение каналов : Front: L R
Частота : 48,0 КГц
Битовая глубина : 16 бит
Метод сжатия : С потерями
Размер потока : 31,9 Мбайт (3%)
Язык : Russian
Default : Да
Forced : Нет

Аудио #2
Идентификатор : 3
Формат : AC-3
Формат/Информация : Audio Coding 3
Расширение режима : CM (complete main)
Параметр Endianness формата : Big
Идентификатор кодека : A_AC3
Продолжительность : 23 м.
Вид битрейта : Постоянный
Битрейт : 640 Кбит/сек
Каналы : 6 каналов
Расположение каналов : Front: L C R, Side: L R, LFE
Частота : 48,0 КГц
Битовая глубина : 16 бит
Метод сжатия : С потерями
Размер потока : 106 Мбайт (12%)
Язык : English
Default : Нет
Forced : Нет

Текст
Идентификатор : 4
Формат : UTF-8
Идентификатор кодека : S_TEXT/UTF8
Идентификатор кодека/Информация : UTF-8 Plain Text
Язык : English
Default : Нет
Forced : Нет


_________________
Проголосуй за трекер Открытый торрент трекер - RUS-MEDIA.ORG

Проголосуй Открытый торрент трекер - RUS-MEDIA.ORG



реклама партнёра


Вернуться к началу
 Профиль Отправить личное сообщение  
 
   Похожие торренты   Автор   Торрент   Размер 
В этой теме нет новых непрочитанных сообщений. Друзья / Friends / 1 сезон: 1-24 серии из 24 [ситком, 1994-1995] BDRip, Mvo [РТР]

salma3

15 | 8

5.84 ГБ

В этой теме нет новых непрочитанных сообщений. Друзья / Friends [S01] [комедия, мелодрама, 1994] BDRemux 1080p, Mvo

salma3

10 | 18

60.23 ГБ

В этой теме нет новых непрочитанных сообщений. Друзья / Friends / 3 сезон: 1-25 серии из 25 [ситком, 1997] BDRip, Mvo [РТР]

salma3

11 | 7

6.16 ГБ

В этой теме нет новых непрочитанных сообщений. Друзья / Friends / 5 сезон: 1-24 серии из 24 [ситком, 1999] BDRip, Mvo [РТР]

salma3

9 | 5

5.85 ГБ

В этой теме нет новых непрочитанных сообщений. Друзья / Friends / 2 сезон: 1-24 серии из 24 [ситком, 1996] BDRip, Mvo [РТР]

salma3

15 | 8

5.85 ГБ

В этой теме нет новых непрочитанных сообщений. Друзья / Friends / 4 сезон: 1-24 серии из 24 [ситком, 1998] BDRip, Mvo [РТР]

salma3

8 | 5

5.85 ГБ

В этой теме нет новых непрочитанных сообщений. Лучшие друзья / Best Friends [комедия, мелодрама, 1982] DVDRip, Mvo

salma3

19 | 8

2.13 ГБ


СообщениеДобавлено: 02 июн 2016, 03:20 

В сети
Аватара пользователя
Дата регистрации:
16 мар 2014, 09:15
Спасибо: 0 / 40
Сообщения: 35
добавляйте украинский дубляж :D


Вернуться к началу
 Профиль Отправить личное сообщение  
 
Начать новую тему Ответить на тему  [ Сообщений: 2 ] 




Для Мосгорсуда, Роскомнадзора и рекламодателей:: mosgorsud-torrent[собачка]yandex.ru