Торрент файл
скачать торрент магнет ссылка Добавлен: 18 мар 2014, 14:27
Размер: 4.34 ГБ
Сидеров: 2
Личеров: 2
Статус: (salma3)
Автор

СообщениеДобавлено: 18 мар 2014, 14:32 

Не в сети
Аватара пользователя
Дата регистрации:
26 ноя 2013, 12:32
Возраст: 56
Спасибо: 52 / 7
Сообщения: 66
Откуда: СССР
Год выпуска: 2013
Выпущено: Украина ,Россия ,«Film.ua Production»
Жанр: Детектив, криминал
Перевод: Не требуется
Режиссер: Артем Литвиненко
В ролях: Кирилл Кяро, Иван Оганесян, Мария Аниканова, Нина Гогаева, Борис Каморзин, Тимофей Каратаев, Виолетта Трыкова, Тарас Готовцев, Денис Мартынов, Александр Новосёлов, Дмитрий Усов, Пётр Крылов (III)
О фильме: Его зовут Нюхач. Он обладает сверхчувствительным обонянием, для него не существует тайн и нераскрываемых преступлений. По запаху Нюхач может рассказать все и даже больше о любом человеке: что он ел, с кем он спал, есть ли у него алиби. Уникальная способность Нюхача – его дар и проклятие одновременно. С одной стороны, он раскрывает самые изощренные и запутанные преступления, знает все сокровенные тайны политиков, бизнесменов и криминальных авторитетов. С другой - Нюхач абсолютно беззащитен перед окружающим миром, переполненным всевозможными запахами. Он не умеет строить отношения ни с женщинами, ни с близкими людьми, потому что знает о них все: ему невозможно сделать сюрприз, его нельзя обмануть, любой посторонний запах оттолкнет его от самого романтического свидания. У него сложная, но интересная жизнь...
Сэмпл
Качество: DVDRip
Видео: 720x400,25 fps, XviD ~1362 kbps
Аудио: 48 kHz, AC3,2/0 ch, ~192 kbps
Продолжительность: 8 х ~ 00:51:00
Общее
Полное имя : D:\Мои фильмы\Njuhach_1-8iz8_2013_XviD_DVDRip\Njuhach_1_iz_8_2013_DVDRip.avi
Формат : AVI
Формат/Информация : Audio Video Interleave
Размер файла : 555 Мбайт
Продолжительность : 49 м.
Общий поток : 1565 Кбит/сек
Программа кодирования : VirtualDubMod 1.5.10.3 | http://www.virtualdub-fr.org || (build 2550/release)
Библиотека кодирования : VirtualDub build 35491/release

Видео
Идентификатор : 0
Формат : MPEG-4 Visual
Профиль формата : Advanced Simple@L5
Параметр BVOP формата : 2
Параметр QPel формата : Нет
Параметр GMC формата : Без точки перехода
Параметр матрицы формата : Default (H.263)
Режим смешивания : Сжатый битовый поток
Идентификатор кодека : XVID
Идентификатор кодека/Подсказка : XviD
Продолжительность : 49 м.
Битрейт : 1363 Кбит/сек
Ширина : 720 пикселей
Высота : 400 пикселей
Соотношение сторон : 16:9
Частота кадров : 25,000 кадров/сек
Цветовое пространство : YUV
Субдискретизация насыщенности : 4:2:0
Битовая глубина : 8 бит
Тип развёртки : Прогрессивная
Метод сжатия : С потерями
Бит/(Пиксели*Кадры) : 0.189
Размер потока : 484 Мбайт (87%)
Библиотека кодирования : XviD 64

Аудио
Идентификатор : 1
Формат : AC-3
Формат/Информация : Audio Coding 3
Расширение режима : CM (complete main)
Параметр Endianness формата : Big
Идентификатор кодека : 2000
Продолжительность : 49 м.
Вид битрейта : Постоянный
Битрейт : 192 Кбит/сек
Каналы : 2 канала
Расположение каналов : Front: L R
Частота : 48,0 КГц
Битовая глубина : 16 бит
Метод сжатия : С потерями
Размер потока : 68,2 Мбайт (12%)
Выравнивание : Соединение по промежуткам
Продолжительность промежутка : 40 мс. (1,00 видеокадр)
Время предзагрузки промежутка : 512 мс.





реклама партнёра


Вернуться к началу
 Профиль Отправить личное сообщение  
 
   Похожие торренты   Автор   Торрент   Размер 
В этой теме нет новых непрочитанных сообщений. Нюхач [01-08 из 08] [Детектив, 2013] HDTVRip

Dracon

34 | 3

5.82 ГБ

В этой теме нет новых непрочитанных сообщений. Нюхач / NYUHACH (серия 1-8 из 8) (Артем Литвиненко) [2013, Детектив , HDTVRip-AVC 1080p] [DD5.1]

Nikolai.Baranov

0 | 2

16.24 ГБ

В этой теме нет новых непрочитанных сообщений. Нюхач (Артем Литвиненко) (Сезон 1-2, Серии 1-16 из 16) [2013-2015 , Детектив , BD-Remux , HDTVRip 1080p]

Враг Нароода

3 | 0

41.04 ГБ

В этой теме нет новых непрочитанных сообщений. Нюхач [S02] (Артем Литвиненко) [Детектив, 2015] WEB-DL 1080p

Dracon

443 | 75

15.06 ГБ

В этой теме нет новых непрочитанных сообщений. Нюхач [S02] (Артем Литвиненко) [Детектив, 2015] WEB-DLRip

Dracon

9884 | 1239

5.86 ГБ

В этой теме нет новых непрочитанных сообщений. Нюхач [S02] (Артем Литвиненко) [Детектив, 2015] WEB-DL 720p

Dracon

1237 | 189

9.02 ГБ

В этой теме нет новых непрочитанных сообщений. Нюхач-2 [Серия 1-2 из 8] (Артем Литвиненко) [Детектив, 2015] SATRip

Dracon

49 | 10

1.5 ГБ


Начать новую тему Ответить на тему  [ 1 сообщение ] 




Для Мосгорсуда, Роскомнадзора и рекламодателей:: mosgorsud-torrent[собачка]yandex.ru