Торрент файл
скачать торрент магнет ссылка Добавлен: 17 мар 2014, 17:50
Размер: 2.74 ГБ
Сидеров: 37
Личеров: 6
Автор

СообщениеДобавлено: 17 мар 2014, 17:50 

Не в сети
Супермодератор
Аватара пользователя
Дата регистрации:
15 фев 2012, 16:44
Возраст: 28
Спасибо: 7165 / 2147
Сообщения: 61901
Судья / The Judge

Год выпуска: 2001
Жанр: Детектив
Режиссер: Мик Гэррис

В ролях: Крис Нот, Эдвард Джеймс Олмос, Лолита Давидович, Чарльз Дёрнинг, Джон Терри, Марк Блум, Хайди Марк, Питер МакНейл, Соня Брага, Алек МакКлюр

Описание: Когда судье Акосте предъявляют обвинение в вымогательстве денег с проститутки, оказавшейся полицейской под прикрытием, мало кто проникается к нему сочувствием, включая адвоката Мадриани. Судья пользуется скандальной репутацией. Защищать такого человека будет нелегко, принимая во внимание не желающих сотрудничать свидетелей, полицейскую коррупцию, опасное честолюбие обвинителя и угрозы в адрес адвоката. Но, несмотря на их старинную вражду, Акосте приходится просить защищать его именно Мадриани. После жестокого убийства сотрудницы полиции, "подставившей" Акосту, судье предъявляют новое обвинение. Все улики указывают на него и ему крайне необходим хороший адвокат.



Страна: США
Продолжительность: 2 х ~ 01:21:00
Перевод: Профессиональный [многоголосый]

Файл
Качество: DVDRip
Формат файла: AVI
Видео кодек: XviD
Аудио кодек: AC3
Видео: XviD, ~ 2059 Кбит/с, 704х528
Аудио: АС3, 5 ch, 384 Кбит/с

Общее
Полное имя : D:1АААСУДЬЯ1 серия.avi
Формат : AVI
Формат/Информация : Audio Video Interleave
Размер файла : 1,37 Гбайт
Продолжительность : 1 ч. 19 м.
Общий поток : 2449 Кбит/сек
Программа кодирования : VirtualDubMod 1.5.10.3 | http://www.virtualdub-fr.org || (build 2550/release)
Библиотека кодирования : VirtualDubMod build 2550/release

Видео
Идентификатор : 0
Формат : MPEG-4 Visual
Профиль формата : Advanced Simple@L5
Параметр BVOP формата : 2
Параметр QPel формата : Нет
Параметр GMC формата : Без точки перехода
Параметр матрицы формата : Default (MPEG)
Идентификатор кодека : XVID
Идентификатор кодека/Подсказка : XviD
Продолжительность : 1 ч. 19 м.
Битрейт : 2056 Кбит/сек
Ширина : 704 пикселя
Высота : 528 пикселей
Соотношение сторон : 4:3
Частота кадров : 23,976 кадра/сек
Цветовое пространство : YUV
Субдискретизация насыщенности : 4:2:0
Битовая глубина : 8 бит
Тип развёртки : Прогрессивная
Метод сжатия : С потерями
Бит/(Пиксели*Кадры) : 0.231
Размер потока : 1,15 Гбайт (84%)
Библиотека кодирования : XviD 1.2.1 (UTC 2008-12-04)

Аудио
Идентификатор : 1
Формат : AC-3
Формат/Информация : Audio Coding 3
Расширение режима : CM (complete main)
Параметр Endianness формата : Big
Идентификатор кодека : 2000
Продолжительность : 1 ч. 19 м.
Вид битрейта : Постоянный
Битрейт : 384 Кбит/сек
Каналы : 5 каналов
Расположение каналов : Front: L C R, Side: L R
Частота : 48,0 КГц
Битовая глубина : 16 бит
Метод сжатия : С потерями
Размер потока : 220 Мбайт (16%)
Выравнивание : Разделение по промежуткам
Продолжительность промежутка : 42 мс. (1,00 видеокадр)
Время предзагрузки промежутка : 500 мс.



Релиз группа:Автор рипа:


_________________
Проголосуй за трекер Открытый торрент трекер - RUS-MEDIA.ORG

Проголосуй Открытый торрент трекер - RUS-MEDIA.ORG


Вернуться к началу
 Профиль Отправить личное сообщение  
 
   Похожие торренты   Автор   Торрент   Размер 
В этой теме нет новых непрочитанных сообщений. Судья Дредд / Judge Dredd [Фантастика, боевик, криминал, 1995] BDRip-AVC, Mvo

salma3

90 | 16

746.21 МБ

В этой теме нет новых непрочитанных сообщений. Судья Дредд / Judge Dredd [фантастика, боевик, триллер, 1995] HDRip-AVC, Mvo

salma3

6 | 1

2.17 ГБ

В этой теме нет новых непрочитанных сообщений. Судья Дредд / Judge Dredd [фантастика, боевик, триллер, 1995] BDRip, Dvo

salma3

1 | 3

1.46 ГБ

В этой теме нет новых непрочитанных сообщений. Судья Дредд / Judge Dredd [Фантастика, боевик, триллер, 1995] BDRemux 1080p, Mvo

salma3

20 | 28

17.78 ГБ

В этой теме нет новых непрочитанных сообщений. Страшный суд / Judge and Jury [ужасы, боевик, триллер, 1996] DVDRip, Avo

salma3

33 | 11

1.46 ГБ

В этой теме нет новых непрочитанных сообщений. Жизнь и времена судьи Роя Бина / The Life and Times of Judge Roy Bean [драма, комедия, вестерн, 1972] DVDRip, Mvo

salma3

113 | 31

1.45 ГБ

В этой теме нет новых непрочитанных сообщений. Яма / The Hole [триллер, драма, детектив, 2001] DVDRip-AVC, Mvo

salma3

63 | 11

746.71 МБ


Начать новую тему Ответить на тему  [ 1 сообщение ] 




Для Мосгорсуда, Роскомнадзора и рекламодателей:: mosgorsud-torrent[собачка]yandex.ru
cron