Торрент файл
скачать торрент магнет ссылка Добавлен: 14 мар 2014, 17:08
Размер: 4.34 ГБ
Сидеров: 0
Личеров: 2
Статус: (salma3)
Автор

СообщениеДобавлено: 14 мар 2014, 17:13 

Не в сети
Аватара пользователя
Дата регистрации:
26 ноя 2013, 12:32
Возраст: 56
Спасибо: 52 / 7
Сообщения: 66
Откуда: СССР
Год выпуска: 2013
Выпущено: Россия ,"Марс Медиа"
Жанр: Драма, военный
Перевод: Не требуется
Режиссер: Бахтиёр Худойназаров
В ролях: Андрей Панин, Сергей Гармаш, Артур Смольянинов, Филипп Янковский, Татьяна Лютаева, Дарья Мельникова, Аглая Тарасова, Мария Антонова (II), Анастасия Микульчина, Алиса Горшкова, Оксана Базилевич, Юлиана Ромашина (Оррен), Анатолий Гущин, Олег Флеер, Сергей Тэсслер (VII), Дмитрий Поднозов, Олег Тилькин
О фильме: Сентябрь 1939 года. Начало Второй Мировой войны. В Крым приезжает майор советской разведки Соколов. Его главная цель – выявить агентурную сеть террористической антисоветской организации РОВС. Руководит контрразведкой Русского общевоинского союза - штабс-капитан Семенов, псевдоним Крест. Крест и Соколов – давние враги. Белые офицеры, в 1917 году они оказались по разные стороны баррикад. Они прекрасно знают друг друга в лицо, хотели бы и не один раз могли бы убить друг друга, но каждому из них нужна гибель системы, которую представляет противник. Оба – азартные игроки - они начинают сложную партию, в которой шансы на победу почти равны. Каждый из них готов жертвовать любыми фигурами, включая себя, ведь на кону - Родина. Одна. Но для каждого своя…
Сэмпл
Качество: WEBRip
Видео: 720x400,25 fps,XviD,~1401 kbps
Аудио: 44.1kHz,AC3,2/0 ch,~192 kbps
Продолжительность: 8 x ~ 00:47:00
Общее
Полное имя : D:\Мои фильмы\Getery_majora_Sokolova_1-8iz8_2013_XviD_WEBRip\Getery_majora_Sokolova_1_iz_8_2013_WEBRip.avi
Формат : AVI
Формат/Информация : Audio Video Interleave
Размер файла : 555 Мбайт
Продолжительность : 48 м.
Общий поток : 1603 Кбит/сек
Программа кодирования : VirtualDubMod 1.5.10.3 | http://www.virtualdub-fr.org || (build 2550/release)
Библиотека кодирования : VirtualDub build 35491/release

Видео
Идентификатор : 0
Формат : MPEG-4 Visual
Профиль формата : Advanced Simple@L5
Параметр BVOP формата : 2
Параметр QPel формата : Нет
Параметр GMC формата : Без точки перехода
Параметр матрицы формата : Default (H.263)
Режим смешивания : Сжатый битовый поток
Идентификатор кодека : XVID
Идентификатор кодека/Подсказка : XviD
Продолжительность : 48 м.
Битрейт : 1402 Кбит/сек
Ширина : 720 пикселей
Высота : 400 пикселей
Соотношение сторон : 16:9
Частота кадров : 25,000 кадров/сек
Цветовое пространство : YUV
Субдискретизация насыщенности : 4:2:0
Битовая глубина : 8 бит
Тип развёртки : Прогрессивная
Метод сжатия : С потерями
Бит/(Пиксели*Кадры) : 0.195
Размер потока : 486 Мбайт (87%)
Библиотека кодирования : XviD 64

Аудио
Идентификатор : 1
Формат : AC-3
Формат/Информация : Audio Coding 3
Расширение режима : CM (complete main)
Параметр Endianness формата : Big
Идентификатор кодека : 2000
Продолжительность : 48 м.
Вид битрейта : Постоянный
Битрейт : 192 Кбит/сек
Каналы : 2 канала
Расположение каналов : Front: L R
Частота : 44,1 КГц
Битовая глубина : 16 бит
Метод сжатия : С потерями
Размер потока : 66,4 Мбайт (12%)
Выравнивание : Соединение по промежуткам
Продолжительность промежутка : 40 мс. (1,00 видеокадр)
Время предзагрузки промежутка : 522 мс.





реклама партнёра


Вернуться к началу
 Профиль Отправить личное сообщение  
 
   Похожие торренты   Автор   Торрент   Размер 
В этой теме нет новых непрочитанных сообщений. Гетеры майора Соколова [01-08 из 08] [Драма, 2014] SATRip

Dracon

1006 | 82

4.48 ГБ

В этой теме нет новых непрочитанных сообщений. Как правильно расстреливать (Штрафбат, Николай Досталь, 2004) [ Боевик, драма, военный, 2013] WEBRip

vairgin

2 | 2

345.28 МБ

В этой теме нет новых непрочитанных сообщений. Не покидай меня [4 из 4] [Военный, приключения, 2013] WEBRip

iopuk60

0 | 2

2.17 ГБ

В этой теме нет новых непрочитанных сообщений. Как правильно расстреливать [документальный, военный, приключения, 2013] WEBRip

EvgenijUg

5 | 3

354.8 МБ

В этой теме нет новых непрочитанных сообщений. Переводчик [4 из 4] [Драма, военный, 2014] WEBRip

iopuk60

0 | 2

2.17 ГБ

В этой теме нет новых непрочитанных сообщений. Сталин: деблокирование Сталинграда Готом (Меняйлов) "Горячий снег" [2013, Документальный военный история, WEBRip]

vairgin

9 | 2

449.28 МБ

В этой теме нет новых непрочитанных сообщений. Молодая гвардия [Серия 1-6 из 12] (Леонид Пляскин) [военный, драма, 2015] WEBRip

Dracon

244 | 40

3.55 ГБ


Начать новую тему Ответить на тему  [ 1 сообщение ] 




Для Мосгорсуда, Роскомнадзора и рекламодателей:: mosgorsud-torrent[собачка]yandex.ru