Торрент файл
скачать торрент магнет ссылка Добавлен: 09 мар 2014, 20:02
Размер: 2.14 ГБ
Сидеров: 96
Личеров: 8
Статус: (Dracon)
Автор

СообщениеДобавлено: 09 мар 2014, 20:02 

Не в сети
Зам. Админа
Аватара пользователя
Дата регистрации:
02 дек 2010, 12:39
Спасибо: 12460 / 214
Сообщения: 27968
Год выпуска: 2014
Жанр: Боевик
Режиссер: Карен Адамян
В ролях: Юрий Кормушин, Марина Вайнбранд, Влад Канопка, Анастасия Сметанина, Олег Шкловский, Павел Кузьмин, Вячеслав Кулаков, Михаил Хмуров, Леонид Евтифьев, Владимир Стеклов

Описание: В российском городе Торбинске происходит цепь загадочных убийств среди криминальных авторитетов. По слухам и разговорам за этими убийствами стоит загадочная личность «Шахматист», но никто его не знает и никогда не видел. И полиция и весь криминальный мир Торбинска ищут этого самого «Шахматиста». В это же время в город приезжает Влад Артемьев - преподаватель истории Востока и мастер восточных боевых искусств. В силу ряда причин подозрение падает на него. Чтобы доказать свою невиновность и найти истинного «Шахматиста» Влад скрывается и начинает собственные поиски. В этом ему помогают студентка Кристина и компьютерный гений Ульяна. В результате многочисленных перипетий Владу удается найти и обезвредить «Шахматиста» и тем самым доказать свою непричастность к происходящим в городе беспорядкам.

Страна: Россия
Студия: Berg Sound
Продолжительность: 4 х ~ 00:46:00

Качество: DVDRip (AVC)
Видео: MPEG-4 AVC, ~ 1500 Кбит/с, 720x576@1024x576, 25.000 кадр/с
Аудио: Русский (AC3, 2 ch, 192 Кбит/с)



x264 [info]: frame I:659   Avg QP:14.60  size: 36867
x264 [info]: frame P:20176 Avg QP:17.15  size: 14248
x264 [info]: frame B:48563 Avg QP:20.13  size:  4038
x264 [info]: consecutive B-frames:  4.4%  5.8% 38.4% 14.4%  5.9% 30.0%  0.5%  0.1%  0.0%  0.0%  0.0%  0.1%  0.4%
x264 [info]: mb I  I16..4:  8.9% 83.8%  7.3%
x264 [info]: mb P  I16..4:  1.7% 18.1%  1.4%  P16..4: 36.3% 17.9% 12.2%  0.0%  0.0%    skip:12.4%
x264 [info]: mb B  I16..4:  0.2%  1.6%  0.1%  B16..8: 35.0%  8.1%  2.2%  direct: 7.2%  skip:45.5%  L0:40.3% L1:40.0% BI:19.7%
x264 [info]: 8x8 transform intra:84.7% inter:65.0%
x264 [info]: direct mvs  spatial:98.0% temporal:2.0%
x264 [info]: coded y,uvDC,uvAC intra: 77.5% 71.7% 31.4% inter: 19.1% 18.5% 5.6%
x264 [info]: i16 v,h,dc,p: 26% 11% 18% 46%
x264 [info]: i8 v,h,dc,ddl,ddr,vr,hd,vl,hu: 29% 14% 31%  3%  3%  5%  3%  6%  5%
x264 [info]: i4 v,h,dc,ddl,ddr,vr,hd,vl,hu: 29% 11%  9%  7% 10% 13%  8%  8%  6%
x264 [info]: i8c dc,h,v,p: 37% 24% 27% 11%
x264 [info]: Weighted P-Frames: Y:3.3% UV:1.8%
x264 [info]: ref P L0: 59.1%  9.1% 14.3%  4.1%  3.2%  3.0%  2.5%  2.0%  1.8%  0.9%  0.0%
x264 [info]: ref B L0: 81.7% 11.4%  3.0%  1.3%  1.0%  0.8%  0.6%  0.2%
x264 [info]: ref B L1: 92.3%  7.7%
x264 [info]: kb/s:1463.69
Общее
Уникальный идентификатор : 250365218358121451742286995303724239049 (0xBC5A964CA3336EA4A5073ADDB36848C9)
Полное имя : D:DVD\01.mkv
Формат : Matroska
Версия формата : Version 2
Размер файла : 548 Мбайт
Продолжительность : 46 м.
Общий поток : 1657 Кбит/сек
Дата кодирования : UTC 2014-03-09 10:21:23
Программа кодирования : mkvmerge v6.1.0 ('Old Devil') built on Mar 4 2013 09:10:42
Библиотека кодирования : libebml v1.3.0 + libmatroska v1.4.0

Видео
Идентификатор : 1
Формат : AVC
Формат/Информация : Advanced Video Codec
Профиль формата : High@L4.1
Параметр CABAC формата : Да
Параметр ReFrames формата : 9 кадров
Идентификатор кодека : V_MPEG4/ISO/AVC
Продолжительность : 46 м.
Битрейт : 1464 Кбит/сек
Ширина : 720 пикселей
Высота : 576 пикселей
Соотношение сторон : 16:9
Режим частоты кадров : Постоянный
Частота кадров : 25,000 кадров/сек
Стандарт вещания : PAL
Цветовое пространство : YUV
Субдискретизация насыщенности : 4:2:0
Битовая глубина : 8 бит
Тип развёртки : Прогрессивная
Бит/(Пиксели*Кадры) : 0.141
Размер потока : 474 Мбайт (86%)
Библиотека кодирования : x264 core 142 r2389+41 02cb608 tMod [8-bit@4:2:0 X86_64]
Настройки программы : cabac=1 / ref=9 / deblock=1:-3:-3 / analyse=0x3:0x113 / me=umh / subme=10 / psy=1 / fade_compensate=0.00 / psy_rd=1.00:0.20 / mixed_ref=1 / me_range=32 / chroma_me=1 / trellis=2 / 8x8dct=1 / cqm=0 / deadzone=21,11 / fast_pskip=0 / chroma_qp_offset=-3 / threads=12 / lookahead_threads=3 / sliced_threads=0 / nr=0 / decimate=0 / interlaced=0 / bluray_compat=0 / constrained_intra=0 / fgo=0 / bframes=12 / b_pyramid=2 / b_adapt=2 / b_bias=0 / direct=3 / weightb=1 / open_gop=0 / weightp=2 / keyint=250 / keyint_min=25 / scenecut=40 / intra_refresh=0 / rc=2pass / mbtree=0 / bitrate=1464 / ratetol=1.0 / qcomp=0.60 / qpmin=0:0:0 / qpmax=69:69:69 / qpstep=4 / cplxblur=20.0 / qblur=0.5 / ip_ratio=1.40 / pb_ratio=1.30 / aq=2:0.80 / aq-sensitivity=10.00 / aq-factor=1.00:1.00:1.00 / aq2=0 / aq3=0
Default : Да
Forced : Нет

Аудио
Идентификатор : 2
Формат : AC-3
Формат/Информация : Audio Coding 3
Расширение режима : CM (complete main)
Параметр Endianness формата : Big
Идентификатор кодека : A_AC3
Продолжительность : 46 м.
Вид битрейта : Постоянный
Битрейт : 192 Кбит/сек
Каналы : 2 канала
Расположение каналов : Front: L R
Частота : 48,0 КГц
Битовая глубина : 16 бит
Метод сжатия : С потерями
Размер потока : 63,5 Мбайт (12%)
Default : Да
Forced : Нет




реклама партнёра


Вернуться к началу
 Профиль  
 
   Похожие торренты   Автор   Торрент   Размер 
В этой теме нет новых непрочитанных сообщений. Синдром Альцгеймера / De zaak Alzheimer [боевик, триллер, драма, криминал, 2003] BDRip 1080p, Avo+Sub

salma3

14 | 2

11.92 ГБ

В этой теме нет новых непрочитанных сообщений. Синдром Альцгеймера / De zaak Alzheimer [Боевик, триллер, драма, криминал, 2003] BDRip 720p, Avo+Sub

salma3

58 | 12

7.4 ГБ

В этой теме нет новых непрочитанных сообщений. Синдром недосказанности [Мелодрама, 2015] HDTV 1080i

Dracon

118 | 2

3.25 ГБ

В этой теме нет новых непрочитанных сообщений. Синдром недосказанности [Мелодрама, 2015] HDTVRip 720p

Dracon

104 | 3

2.43 ГБ

В этой теме нет новых непрочитанных сообщений. Синдром Стендаля / La sindrome di Stendhal [триллер, детектив, 1996] BDRip 720, Mvo+Sub

salma3

9 | 2

7.47 ГБ

В этой теме нет новых непрочитанных сообщений. Синдром Петрушки (Елена Хазанова) [Драма, 2015] WEB-DL 1080p [iTunes]

Dracon

2057 | 216

3.28 ГБ

В этой теме нет новых непрочитанных сообщений. Синдром Петрушки (Елена Хазанова) [Драма, 2015] WEB-DLRip [iTunes]

Dracon

4162 | 313

1.46 ГБ


Начать новую тему Ответить на тему  [ 1 сообщение ] 




Для Мосгорсуда, Роскомнадзора и рекламодателей:: mosgorsud-torrent[собачка]yandex.ru